  0
SECTION
  2
HEADER
  9
$ACADVER
  1
AC1015
  9
$ACADMAINTVER
 70
    14
  9
$DWGCODEPAGE
  3
ANSI_1252
  9
$INSBASE
 10
0.0
 20
0.0
 30
0.0
  9
$EXTMIN
 10
-1645.384899970512
 20
-1738.069112390895
 30
0.0
  9
$EXTMAX
 10
2230.665179361465
 20
878.761275344622
 30
0.0
  9
$LIMMIN
 10
0.0
 20
0.0
  9
$LIMMAX
 10
420.0000000000001
 20
297.0
  9
$ORTHOMODE
 70
     1
  9
$REGENMODE
 70
     1
  9
$FILLMODE
 70
     1
  9
$QTEXTMODE
 70
     0
  9
$MIRRTEXT
 70
     1
  9
$LTSCALE
 40
1.0
  9
$ATTMODE
 70
     1
  9
$TEXTSIZE
 40
2.5
  9
$TRACEWID
 40
1.0
  9
$TEXTSTYLE
  7
STANDARD
  9
$CLAYER
  8
AM_0
  9
$CELTYPE
  6
ByLayer
  9
$CECOLOR
 62
   256
  9
$CELTSCALE
 40
1.0
  9
$DISPSILH
 70
     0
  9
$DIMSCALE
 40
10.0
  9
$DIMASZ
 40
3.5
  9
$DIMEXO
 40
0.0
  9
$DIMDLI
 40
10.0
  9
$DIMRND
 40
0.0
  9
$DIMDLE
 40
0.0
  9
$DIMEXE
 40
2.0
  9
$DIMTP
 40
0.0
  9
$DIMTM
 40
0.0
  9
$DIMTXT
 40
3.5
  9
$DIMCEN
 40
-0.09
  9
$DIMTSZ
 40
0.0
  9
$DIMTOL
 70
     0
  9
$DIMLIM
 70
     0
  9
$DIMTIH
 70
     0
  9
$DIMTOH
 70
     0
  9
$DIMSE1
 70
     0
  9
$DIMSE2
 70
     0
  9
$DIMTAD
 70
     1
  9
$DIMZIN
 70
     8
  9
$DIMBLK
  1

  9
$DIMASO
 70
     1
  9
$DIMSHO
 70
     1
  9
$DIMPOST
  1

  9
$DIMAPOST
  1

  9
$DIMALT
 70
     0
  9
$DIMALTD
 70
     3
  9
$DIMALTF
 40
0.03937007874016
  9
$DIMLFAC
 40
1.0
  9
$DIMTOFL
 70
     1
  9
$DIMTVP
 40
0.0
  9
$DIMTIX
 70
     0
  9
$DIMSOXD
 70
     0
  9
$DIMSAH
 70
     0
  9
$DIMBLK1
  1

  9
$DIMBLK2
  1

  9
$DIMSTYLE
  2
ISO-35
  9
$DIMCLRD
 70
   256
  9
$DIMCLRE
 70
   256
  9
$DIMCLRT
 70
     2
  9
$DIMTFAC
 40
1.0
  9
$DIMGAP
 40
1.0
  9
$DIMJUST
 70
     0
  9
$DIMSD1
 70
     0
  9
$DIMSD2
 70
     0
  9
$DIMTOLJ
 70
     0
  9
$DIMTZIN
 70
     8
  9
$DIMALTZ
 70
     0
  9
$DIMALTTZ
 70
     0
  9
$DIMUPT
 70
     0
  9
$DIMDEC
 70
     4
  9
$DIMTDEC
 70
     4
  9
$DIMALTU
 70
     2
  9
$DIMALTTD
 70
     3
  9
$DIMTXSTY
  7
STANDARD
  9
$DIMAUNIT
 70
     0
  9
$DIMADEC
 70
     4
  9
$DIMALTRND
 40
0.0
  9
$DIMAZIN
 70
     2
  9
$DIMDSEP
 70
    44
  9
$DIMATFIT
 70
     0
  9
$DIMFRAC
 70
     0
  9
$DIMLDRBLK
  1

  9
$DIMLUNIT
 70
     2
  9
$DIMLWD
 70
    -1
  9
$DIMLWE
 70
    -1
  9
$DIMTMOVE
 70
     0
  9
$LUNITS
 70
     2
  9
$LUPREC
 70
     2
  9
$SKETCHINC
 40
1.0
  9
$FILLETRAD
 40
2.5
  9
$AUNITS
 70
     0
  9
$AUPREC
 70
     0
  9
$MENU
  1
.
  9
$ELEVATION
 40
0.0
  9
$PELEVATION
 40
0.0
  9
$THICKNESS
 40
0.0
  9
$LIMCHECK
 70
     0
  9
$CHAMFERA
 40
2.5
  9
$CHAMFERB
 40
2.5
  9
$CHAMFERC
 40
20.0
  9
$CHAMFERD
 40
0.0
  9
$SKPOLY
 70
     0
  9
$TDCREATE
 40
2451829.511066261
  9
$TDUCREATE
 40
2451829.469399594
  9
$TDUPDATE
 40
2454175.489483622
  9
$TDUUPDATE
 40
2454175.447816956
  9
$TDINDWG
 40
0.2366981713
  9
$TDUSRTIMER
 40
0.2366670602
  9
$USRTIMER
 70
     1
  9
$ANGBASE
 50
0.0
  9
$ANGDIR
 70
     0
  9
$PDMODE
 70
     0
  9
$PDSIZE
 40
0.0
  9
$PLINEWID
 40
0.0
  9
$SPLFRAME
 70
     0
  9
$SPLINETYPE
 70
     6
  9
$SPLINESEGS
 70
     8
  9
$HANDSEED
  5
27EF
  9
$SURFTAB1
 70
     6
  9
$SURFTAB2
 70
     6
  9
$SURFTYPE
 70
     6
  9
$SURFU
 70
     6
  9
$SURFV
 70
     6
  9
$UCSBASE
  2

  9
$UCSNAME
  2

  9
$UCSORG
 10
0.0
 20
0.0
 30
0.0
  9
$UCSXDIR
 10
1.0
 20
0.0
 30
0.0
  9
$UCSYDIR
 10
0.0
 20
1.0
 30
0.0
  9
$UCSORTHOREF
  2

  9
$UCSORTHOVIEW
 70
     0
  9
$UCSORGTOP
 10
0.0
 20
0.0
 30
0.0
  9
$UCSORGBOTTOM
 10
0.0
 20
0.0
 30
0.0
  9
$UCSORGLEFT
 10
0.0
 20
0.0
 30
0.0
  9
$UCSORGRIGHT
 10
0.0
 20
0.0
 30
0.0
  9
$UCSORGFRONT
 10
0.0
 20
0.0
 30
0.0
  9
$UCSORGBACK
 10
0.0
 20
0.0
 30
0.0
  9
$PUCSBASE
  2

  9
$PUCSNAME
  2

  9
$PUCSORG
 10
0.0
 20
0.0
 30
0.0
  9
$PUCSXDIR
 10
1.0
 20
0.0
 30
0.0
  9
$PUCSYDIR
 10
0.0
 20
1.0
 30
0.0
  9
$PUCSORTHOREF
  2

  9
$PUCSORTHOVIEW
 70
     0
  9
$PUCSORGTOP
 10
0.0
 20
0.0
 30
0.0
  9
$PUCSORGBOTTOM
 10
0.0
 20
0.0
 30
0.0
  9
$PUCSORGLEFT
 10
0.0
 20
0.0
 30
0.0
  9
$PUCSORGRIGHT
 10
0.0
 20
0.0
 30
0.0
  9
$PUCSORGFRONT
 10
0.0
 20
0.0
 30
0.0
  9
$PUCSORGBACK
 10
0.0
 20
0.0
 30
0.0
  9
$USERI1
 70
     0
  9
$USERI2
 70
     0
  9
$USERI3
 70
     0
  9
$USERI4
 70
     0
  9
$USERI5
 70
     0
  9
$USERR1
 40
0.0
  9
$USERR2
 40
0.0
  9
$USERR3
 40
0.0
  9
$USERR4
 40
0.0
  9
$USERR5
 40
0.0
  9
$WORLDVIEW
 70
     1
  9
$SHADEDGE
 70
     3
  9
$SHADEDIF
 70
    70
  9
$TILEMODE
 70
     0
  9
$MAXACTVP
 70
    64
  9
$PINSBASE
 10
0.0
 20
0.0
 30
0.0
  9
$PLIMCHECK
 70
     0
  9
$PEXTMIN
 10
-0.0000000000000568
 20
-0.0000000000000075
 30
0.0
  9
$PEXTMAX
 10
407.0
 20
282.5
 30
0.0
  9
$PLIMMIN
 10
-8.388101458663955
 20
-8.587480189929152
  9
$PLIMMAX
 10
415.3921937590677
 20
291.0917675356981
  9
$UNITMODE
 70
     0
  9
$VISRETAIN
 70
     1
  9
$PLINEGEN
 70
     0
  9
$PSLTSCALE
 70
     1
  9
$TREEDEPTH
 70
  3020
  9
$CMLSTYLE
  2
Standard
  9
$CMLJUST
 70
     0
  9
$CMLSCALE
 40
20.0
  9
$PROXYGRAPHICS
 70
     1
  9
$MEASUREMENT
 70
     1
  9
$CELWEIGHT
370
    -1
  9
$ENDCAPS
280
     0
  9
$JOINSTYLE
280
     0
  9
$LWDISPLAY
290
     0
  9
$INSUNITS
 70
     4
  9
$HYPERLINKBASE
  1

  9
$STYLESHEET
  1
NOVOFERM_05.CTB
  9
$XEDIT
290
     1
  9
$CEPSNTYPE
380
     0
  9
$PSTYLEMODE
290
     1
  9
$FINGERPRINTGUID
  2
{53AE03A8-27E1-11D4-ABF3-00108302ACE4}
  9
$VERSIONGUID
  2
{F1EF425D-9E1D-4A66-BF56-85E5FB31624C}
  9
$EXTNAMES
290
     1
  9
$PSVPSCALE
 40
0.0
  9
$OLESTARTUP
290
     0
  0
ENDSEC
  0
SECTION
  2
CLASSES
  0
CLASS
  1
ACDBDICTIONARYWDFLT
  2
AcDbDictionaryWithDefault
  3
AutoCAD 2000
 90
        0
280
     0
281
     0
  0
CLASS
  1
ACDBPLACEHOLDER
  2
AcDbPlaceHolder
  3
AutoCAD 2000
 90
        0
280
     0
281
     0
  0
CLASS
  1
LAYOUT
  2
AcDbLayout
  3
AutoCAD 2000
 90
        0
280
     0
281
     0
  0
CLASS
  1
ACME_DOCUMENT
  2
AcMeDbDoc
  3
AcMeServices
 90
    32768
280
     0
281
     0
  0
CLASS
  1
ACMESCOPE
  2
AcMeScope
  3
AcMeServices
 90
    32768
280
     0
281
     0
  0
CLASS
  1
ACMECOMMANDHISTORY
  2
AcMeCommandHistory
  3
AcMeServices
 90
    32768
280
     0
281
     0
  0
CLASS
  1
DICTIONARYVAR
  2
AcDbDictionaryVar
  3
AutoCAD 2000
 90
        0
280
     0
281
     0
  0
CLASS
  1
ACIMSYSVARMAN
  2
AcImSysVarManager
  3
AcMeServices
 90
    32768
280
     0
281
     0
  0
CLASS
  1
ACIMREALSYSVAR
  2
AcImRealSysVar
  3
AcMeServices
 90
    32768
280
     0
281
     0
  0
CLASS
  1
ACIMINTSYSVAR
  2
AcImIntSysVar
  3
AcMeServices
 90
    32768
280
     0
281
     0
  0
CLASS
  1
ACMEDRAWINGMAN
  2
AcMeDrawingMan
  3
AcMeServices
 90
    32768
280
     0
281
     0
  0
CLASS
  1
ACMEVIEW
  2
AcMeView
  3
AcMeServices
 90
    32768
280
     0
281
     0
  0
CLASS
  1
ACDBENTITYCACHE
  2
AcMeEntityCache
  3
AcMeServices
 90
    32768
280
     0
281
     0
  0
CLASS
  1
GSMANAGER
  2
AcMeGSManager
  3
AcMeServices
 90
    32768
280
     0
281
     0
  0
CLASS
  1
AmdtInternalReactor
  2
AmdtInternalReactor
  3
AcMeServices
 90
    32768
280
     0
281
     0
  0
CLASS
  1
ACMESTATEMGR
  2
AcMeStateMgr
  3
AcMeServices
 90
    32768
280
     0
281
     0
  0
CLASS
  1
ACGREFMASTER
  2
AcGrefMaster
  3
AcAttribServices
 90
    32768
280
     0
281
     0
  0
CLASS
  1
AM_DRAWING_MGR
  2
AcDmDwgMgr
  3
AcMechDwgViewMgmt
 90
    32768
280
     0
281
     0
  0
CLASS
  1
AM_DWG_DOCUMENT
  2
AcDmDwgDocument
  3
AcMechDwgViewMgmt
 90
    32768
280
     0
281
     0
  0
CLASS
  1
AM_DWG_SHEET
  2
AcDmSheet
  3
AcMechDwgViewMgmt
 90
    32768
280
     0
281
     0
  0
CLASS
  1
AM_VIEWDIMPARMAP
  2
AcDmViewDimParMap
  3
AcMechDwgViewMgmt
 90
    32768
280
     0
281
     0
  0
CLASS
  1
AM_DWGMGR_NAME
  2
AcDmDwgMgrName
  3
AcMechDwgViewMgmt
 90
    32768
280
     0
281
     0
  0
CLASS
  1
ACME_DATABASE
  2
AcMeDbDatabase
  3
AcMeServices
 90
    32768
280
     0
281
     0
  0
CLASS
  1
ACRFINSADJUSTERMGR
  2
AcRfInsAdjusterMgr
  3
AcMeServices
 90
    32768
280
     0
281
     0
  0
CLASS
  1
ACGREFMASTER
  2
AcGrefacadMaster
  3
AcGrefServices
 90
    32768
280
     0
281
     0
  0
CLASS
  1
AMDTMENUSTATEMGR
  2
AmdtMenuStateMgr
  3
McadcomServices
 90
    32768
280
     0
281
     0
  0
CLASS
  1
AMDTMCOMMENUSTATE
  2
AmdtMcomMenuState
  3
McadcomServices
 90
    32768
280
     0
281
     0
  0
CLASS
  1
ASAPP
  2
AcAsAppObject
  3
AutoSurfServices
 90
    32768
280
     0
281
     0
  0
CLASS
  1
IM_STATIC_MAN
  2
AcImStaticVarManager
  3
AcMeServices
 90
    32768
280
     0
281
     0
  0
CLASS
  1
ACIMSTRSYSVAR
  2
AcImStrSysVar
  3
AcMeServices
 90
    32768
280
     0
281
     0
  0
CLASS
  1
ACIMDBLSTATICVAR
  2
AcImDblStaticVar
  3
AcMeServices
 90
    32768
280
     0
281
     0
  0
CLASS
  1
ACIMSTRSTATICVAR
  2
AcImStrStaticVar
  3
AcMeServices
 90
    32768
280
     0
281
     0
  0
CLASS
  1
ACIMINTSTATICVAR
  2
AcImIntStaticVar
  3
AcMeServices
 90
    32768
280
     0
281
     0
  0
CLASS
  1
ACADGREFMODULE
  2
AcAdGrefModule
  3
AdGrefServices
 90
    32768
280
     0
281
     0
  0
CLASS
  1
AMIMASTER
  2
AmiMaster
  3
AmiServices
 90
    32768
280
     0
281
     0
  0
CLASS
  1
ACASGREFMASTER
  2
AcAsGrefMaster
  3
AutoSurfResolverServices
 90
    32768
280
     0
281
     0
  0
CLASS
  1
MAPIAMMOUDLE
  2
MApiAmModule
  3
MApiAmServices
 90
    32768
280
     0
281
     0
  0
CLASS
  1
AMGSETTINGSOBJ
  2
AmgSettingsObj
  3
"AcadM|Product Description: AutoCAD Mechanical 2000|Company: Autodesk"
 90
    32768
280
     0
281
     0
  0
CLASS
  1
AMDTDMMENUSTATE
  2
AmdtDmMenuState
  3
AcMechDwgViewMgmt
 90
    32768
280
     0
281
     0
  0
CLASS
  1
AMDTADMENUSTATE
  2
AmdtAdMenuState
  3
DesignerServices
 90
    32768
280
     0
281
     0
  0
CLASS
  1
ADAPPL
  2
AcAdAppl
  3
DesignerServices
 90
    32768
280
     0
281
     0
  0
CLASS
  1
DEPMGR
  2
AcAdDepMgr
  3
DesignerServices
 90
    32768
280
     0
281
     0
  0
CLASS
  1
PARAMMGR
  2
AcAdParamMgr
  3
DesignerServices
 90
    32768
280
     0
281
     0
  0
CLASS
  1
PARAMSCOPE
  2
AcAdParamScope
  3
DesignerServices
 90
    32768
280
     0
281
     0
  0
CLASS
  1
NAMEDAPPL
  2
AcAdNamedAppl
  3
DesignerServices
 90
    32768
280
     0
281
     0
  0
CLASS
  1
ADHNTMPLT
  2
AdHoleNoteTemplateMgr
  3
DesignerServices
 90
    32768
280
     0
281
     0
  0
CLASS
  1
AM_HNTEMPLATE_MGR_NAME
  2
AdHoleNoteTemplateMgrName
  3
DesignerServices
 90
    32768
280
     0
281
     0
  0
CLASS
  1
AMDTAMMENUSTATE
  2
AmdtAmMenuState
  3
DesignerAssemblies
 90
    32768
280
     0
281
     0
  0
CLASS
  1
ACAMPROJECT
  2
AcAmProject
  3
DesignerAssemblies
 90
    32768
280
     0
281
     0
  0
CLASS
  1
ACAMGRCOMPDEF
  2
AcAmGrCompDef
  3
DesignerAssemblies
 90
    32768
280
     0
281
     0
  0
CLASS
  1
ACCMCONTEXT
  2
AcCmContext
  3
DesignerAssemblies
 90
    32768
280
     0
281
     0
  0
CLASS
  1
ACAMCOMPDEF
  2
AcAmCompDef
  3
DesignerAssemblies
 90
    32768
280
     0
281
     0
  0
CLASS
  1
ACAMCOMPDEFMGR
  2
AcAmCompDefMgr
  3
DesignerAssemblies
 90
    32768
280
     0
281
     0
  0
CLASS
  1
AMCONTEXTMGR
  2
AcAmContextMgr
  3
DesignerAssemblies
 90
    32768
280
     0
281
     0
  0
CLASS
  1
ACAMCONTEXTMODELER
  2
AcAmContextModeler
  3
DesignerAssemblies
 90
    32768
280
     0
281
     0
  0
CLASS
  1
MAPIADMODULE
  2
MApiAdModule
  3
MApiAdServices
 90
    32768
280
     0
281
     0
  0
CLASS
  1
ACMDATADICTIONARY
  2
AcmDataDictionary
  3
"AcmSymBB|Product Description: AutoCAD Mechanical 2000|Company: Autodesk"
 90
    32768
280
     0
281
     0
  0
CLASS
  1
ACMDATAENTRYBLOCK
  2
AcmDataEntryBlock
  3
"AcmSymBB|Product Description: AutoCAD Mechanical 2000|Company: Autodesk"
 90
    32768
280
     0
281
     0
  0
CLASS
  1
AMDTBROWSERDBTAB
  2
AmdtBrowserDbTab
  3
McadcomServices
 90
    32768
280
     0
281
     0
  0
CLASS
  1
CBROWSERAPPOBJECT
  2
CBrowserAppObject
  3
McadcomServices
 90
    32768
280
     0
281
     0
  0
CLASS
  1
DM_PLACEHOLDER
  2
AcDmSelsetPlaceholder
  3
AcMechDwgViewMgmt
 90
    32768
280
     0
281
     0
  0
CLASS
  1
CATALOGSTATE
  2
AcAmCatalogState
  3
DesignerAssemblies
 90
    32768
280
     0
281
     0
  0
CLASS
  1
ACAMGRCOMPDEFSET
  2
AcAmGrCompDefSet
  3
DesignerAssemblies
 90
    32768
280
     0
281
     0
  0
CLASS
  1
AMGOBJPROPCFG
  2
AmgObjPropCfg
  3
"AmgLay|Product Description: AutoCAD Mechanical 2000|Company: Autodesk"
 90
    32769
280
     0
281
     0
  0
CLASS
  1
ACAMGFILTERDAT
  2
AcAmgFilterDat
  3
"AcadM|Product Description: AutoCAD Mechanical 2000|Company: Autodesk"
 90
        0
280
     0
281
     0
  0
CLASS
  1
LAYER_INDEX
  2
AcDbLayerIndex
  3
AutoCAD 2000
 90
        0
280
     0
281
     0
  0
CLASS
  1
IDBUFFER
  2
AcDbIdBuffer
  3
AutoCAD 2000
 90
        0
280
     0
281
     0
  0
CLASS
  1
ACMSTANDARDDIN
  2
AcmStandardDIN
  3
"AcmSymBB|Product Description: AutoCAD Mechanical 2000|Company: Autodesk"
 90
    32768
280
     0
281
     0
  0
CLASS
  1
AMDTEDGESTANDARDDIN
  2
AmdtEdgeStdDIN
  3
"AcmSymBB|Product Description: AutoCAD Mechanical 2000|Company: Autodesk"
 90
    32768
280
     0
281
     0
  0
CLASS
  1
ACMSURFSTANDARDDIN
  2
AcmSurfTextStdDIN
  3
"AcmSymBB|Product Description: AutoCAD Mechanical 2000|Company: Autodesk"
 90
    32768
280
     0
281
     0
  0
CLASS
  1
ACMFCFSTANDARDDIN
  2
AcmFCFStdDIN
  3
"AcmSymBB|Product Description: AutoCAD Mechanical 2000|Company: Autodesk"
 90
    32768
280
     0
281
     0
  0
CLASS
  1
ACMWELDSTANDARDDIN
  2
AcmWeldingStdDIN
  3
"AcmSymBB|Product Description: AutoCAD Mechanical 2000|Company: Autodesk"
 90
    32768
280
     0
281
     0
  0
CLASS
  1
ACMIDSTANDARDDIN
  2
AcmIdStdDIN
  3
"AcmSymBB|Product Description: AutoCAD Mechanical 2000|Company: Autodesk"
 90
    32768
280
     0
281
     0
  0
CLASS
  1
ACMDATUMSTANDARDDIN
  2
AcmDatumStdDIN
  3
"AcmSymBB|Product Description: AutoCAD Mechanical 2000|Company: Autodesk"
 90
    32768
280
     0
281
     0
  0
CLASS
  1
ACMBOMSTANDARDDIN
  2
AcmBOMStdDIN
  3
"AcmSymBB|Product Description: AutoCAD Mechanical 2000|Company: Autodesk"
 90
    32768
280
     0
281
     0
  0
CLASS
  1
ADPART
  2
AcAdPart
  3
DesignerServices
 90
    32768
280
     0
281
     1
  0
CLASS
  1
ADBASE
  2
AcAdBase
  3
DesignerServices
 90
    32768
280
     0
281
     0
  0
CLASS
  1
BODYID
  2
AcAdBodyId
  3
DesignerServices
 90
    32768
280
     0
281
     0
  0
CLASS
  1
WORKPLANEDISPLAYMGR
  2
AcAdDisplayMgr
  3
DesignerServices
 90
    32768
280
     0
281
     0
  0
CLASS
  1
ACCMBODY
  2
AcCmBody
  3
DesignerAssemblies
 90
    32768
280
     0
281
     0
  0
CLASS
  1
ACAMCOMPENT
  2
AcAmCompEnt
  3
DesignerAssemblies
 90
    32768
280
     0
281
     1
  0
CLASS
  1
ACAMCOMPFEEDBACK
  2
AcAmCompFeedback
  3
DesignerAssemblies
 90
    32768
280
     0
281
     0
  0
CLASS
  1
ACAMCOMP
  2
AcAmComp
  3
DesignerAssemblies
 90
    32768
280
     0
281
     0
  0
CLASS
  1
ACAMCOMPENTCLONE
  2
AcAmCompEntClone
  3
DesignerAssemblies
 90
    32768
280
     0
281
     1
  0
CLASS
  1
ACAMCLONEREACTOR
  2
AcAmGrCompCloneReactor
  3
DesignerAssemblies
 90
    32768
280
     0
281
     0
  0
CLASS
  1
NEWSTDPARTPARLIST
  2
AmgNewParListFiler
  3
"AmgParList|Product Description: AutoCAD Mechanical 2000|Company: Autodesk"
 90
    33791
280
     0
281
     0
  0
CLASS
  1
ACMBOM
  2
AcmBom
  3
"AcmSymBB|Product Description: AutoCAD Mechanical 2000|Company: Autodesk"
 90
    32768
280
     0
281
     0
  0
CLASS
  1
ACMBOMROW
  2
AcmBomRow
  3
"AcmSymBB|Product Description: AutoCAD Mechanical 2000|Company: Autodesk"
 90
    32768
280
     0
281
     0
  0
CLASS
  1
ACMPICKOBJ
  2
AcmPickEnt
  3
"AcmSymBB|Product Description: AutoCAD Mechanical 2000|Company: Autodesk"
 90
    32768
280
     0
281
     1
  0
CLASS
  1
ACMBALLOON
  2
AcmBalloon
  3
"AcmSymBB|Product Description: AutoCAD Mechanical 2000|Company: Autodesk"
 90
    33791
280
     0
281
     1
  0
CLASS
  1
ACMPARTLIST
  2
AcmPartList
  3
"AcmSymBB|Product Description: AutoCAD Mechanical 2000|Company: Autodesk"
 90
    33791
280
     0
281
     1
  0
CLASS
  1
ACMDATAENTRYPART
  2
AcmDataEntryPart
  3
"AcmSymBB|Product Description: AutoCAD Mechanical 2000|Company: Autodesk"
 90
    32768
280
     0
281
     0
  0
CLASS
  1
ACMPARTREF
  2
AcmPartRef
  3
"AcmSymBB|Product Description: AutoCAD Mechanical 2000|Company: Autodesk"
 90
    33791
280
     0
281
     1
  0
CLASS
  1
ACMDATAENTRY
  2
AcmDataEntry
  3
"AcmSymBB|Product Description: AutoCAD Mechanical 2000|Company: Autodesk"
 90
    32768
280
     0
281
     0
  0
CLASS
  1
ACRFATTGENMGR
  2
AcRfAttGeneralMgr
  3
AcAttribServices
 90
    32768
280
     0
281
     0
  0
CLASS
  1
ACMDIMBREAKPERSREACTOR
  2
AcmDimBreakPersReactor
  3
AutoCadMServices
 90
    33791
280
     0
281
     0
  0
ENDSEC
  0
SECTION
  2
TABLES
  0
TABLE
  2
VPORT
  5
8
330
0
100
AcDbSymbolTable
 70
     1
  0
VPORT
  5
27E4
330
8
100
AcDbSymbolTableRecord
100
AcDbViewportTableRecord
  2
*Active
 70
     0
 10
0.0
 20
0.0
 11
1.0
 21
1.0
 12
779.0846361510944
 22
-561.8279393893153
 13
555.7578000639491
 23
-229.7752594355115
 14
5.0
 24
5.0
 15
10.0
 25
10.0
 16
0.0
 26
0.0
 36
1.0
 17
0.0
 27
0.0
 37
0.0
 40
3647.127052377538
 41
1.571134020618555
 42
50.0
 43
0.0
 44
0.0
 50
0.0
 51
0.0
 71
     0
 72
 20000
 73
     1
 74
     1
 75
     0
 76
     0
 77
     0
 78
     0
281
     0
 65
     0
110
0.0
120
0.0
130
0.0
111
1.0
121
0.0
131
0.0
112
0.0
122
1.0
132
0.0
 79
     0
146
0.0
  0
ENDTAB
  0
TABLE
  2
LTYPE
  5
5
330
0
100
AcDbSymbolTable
 70
    16
  0
LTYPE
  5
14
330
5
100
AcDbSymbolTableRecord
100
AcDbLinetypeTableRecord
  2
ByBlock
 70
     0
  3

 72
    65
 73
     0
 40
0.0
  0
LTYPE
  5
15
330
5
100
AcDbSymbolTableRecord
100
AcDbLinetypeTableRecord
  2
ByLayer
 70
     0
  3

 72
    65
 73
     0
 40
0.0
  0
LTYPE
  5
16
330
5
100
AcDbSymbolTableRecord
100
AcDbLinetypeTableRecord
  2
Continuous
 70
     0
  3
Solid line
 72
    65
 73
     0
 40
0.0
  0
LTYPE
  5
4E
330
5
100
AcDbSymbolTableRecord
100
AcDbLinetypeTableRecord
  2
HIDDEN
 70
     0
  3
Verdeckt
 72
    65
 73
     2
 40
9.525
 49
6.349999999999997
 74
     0
 49
-3.174999999999998
 74
     0
  0
LTYPE
  5
4F
330
5
100
AcDbSymbolTableRecord
100
AcDbLinetypeTableRecord
  2
PHANTOM2
 70
     0
  3
Phantom (.5x) ___ _ _ ___ _ _ ___ _ _ ___ _ _
 72
    65
 73
     6
 40
31.75
 49
15.875
 74
     0
 49
-3.174999999999998
 74
     0
 49
3.174999999999998
 74
     0
 49
-3.174999999999998
 74
     0
 49
3.174999999999998
 74
     0
 49
-3.174999999999998
 74
     0
  0
LTYPE
  5
50
330
5
100
AcDbSymbolTableRecord
100
AcDbLinetypeTableRecord
  2
CENTER
 70
     0
  3
Mitte ____ _ ____ _ ____ _ ____ _ ____ _ ____
 72
    65
 73
     4
 40
50.8
 49
31.75
 74
     0
 49
-6.349999999999997
 74
     0
 49
6.349999999999997
 74
     0
 49
-6.349999999999997
 74
     0
  0
LTYPE
  5
EC
330
5
100
AcDbSymbolTableRecord
100
AcDbLinetypeTableRecord
  2
Amconstr
 70
     0
  3
_______________________
 72
    65
 73
     2
 40
9999.0
 49
9999.0
 74
     0
 49
0.0
 74
     0
  0
LTYPE
  5
F1
330
5
100
AcDbSymbolTableRecord
100
AcDbLinetypeTableRecord
  2
Amzigzag
 70
     0
  3
/\/-/\/-/\/-/\/-/\/-/\/
 72
    65
 73
     2
 40
11.00009999999999
 49
0.0001
 74
     4
 75
   135
340
F0
 46
0.04
 50
0.0
 44
0.0
 45
0.0
 49
-11.0
 74
     0
  0
LTYPE
  5
1A4
330
5
100
AcDbSymbolTableRecord
100
AcDbLinetypeTableRecord
  2
ACDINWELD
 70
     0
  3
_ _ _ _ _
 72
    65
 73
     2
 40
2.0
 49
2.0
 74
     0
 49
-1.0
 74
     0
  0
LTYPE
  5
1A5
330
5
100
AcDbSymbolTableRecord
100
AcDbLinetypeTableRecord
  2
ACDINTGB
 70
     0
  3
__ . . __ . .
 72
    65
 73
     6
 40
9.0
 49
4.0
 74
     0
 49
-1.0
 74
     0
 49
1.0
 74
     0
 49
-1.0
 74
     0
 49
1.0
 74
     0
 49
-1.0
 74
     0
  0
LTYPE
  5
1A6
330
5
100
AcDbSymbolTableRecord
100
AcDbLinetypeTableRecord
  2
ACDINTGL
 70
     0
  3
_ _ _ _ _
 72
    65
 73
     2
 40
3.0
 49
2.0
 74
     0
 49
-1.0
 74
     0
  0
LTYPE
  5
1B2
330
5
100
AcDbSymbolTableRecord
100
AcDbLinetypeTableRecord
  2
AM_DIN_F_W050
 70
     0
  3
__ __ __ __ __ __ __ __ __ __ __ __ __ __ __
 72
    65
 73
     2
 40
6.25
 49
4.75
 74
     0
 49
-1.5
 74
     0
  0
LTYPE
  5
1B3
330
5
100
AcDbSymbolTableRecord
100
AcDbLinetypeTableRecord
  2
AM_DIN_G_W050
 70
     0
  3
____ . ____ . ____ . ____ . ____ . ____ . ____
 72
    65
 73
     4
 40
13.75
 49
9.75
 74
     0
 49
-1.5
 74
     0
 49
1.0
 74
     0
 49
-1.5
 74
     0
  0
LTYPE
  5
1B4
330
5
100
AcDbSymbolTableRecord
100
AcDbLinetypeTableRecord
  2
AM_DIN_K_W050
 70
     0
  3
_____ . . _____ . . _____ . . ____ .. ____
 72
    65
 73
     6
 40
16.25
 49
9.75
 74
     0
 49
-1.5
 74
     0
 49
1.0
 74
     0
 49
-1.5
 74
     0
 49
1.0
 74
     0
 49
-1.5
 74
     0
  0
LTYPE
  5
1B5
330
5
100
AcDbSymbolTableRecord
100
AcDbLinetypeTableRecord
  2
AM_DIN_F_W050x2
 70
     0
  3
 _ _ _ _ _ _ _ _ _ _ _ _
 72
    65
 73
     2
 40
3.125
 49
2.25
 74
     0
 49
-0.875
 74
     0
  0
LTYPE
  5
1B6
330
5
100
AcDbSymbolTableRecord
100
AcDbLinetypeTableRecord
  2
AM_DIN_G_W050x2
 70
     0
  3
__ . __ . __ . __ . __ . __
 72
    65
 73
     4
 40
6.875
 49
4.75
 74
     0
 49
-0.875
 74
     0
 49
0.375
 74
     0
 49
-0.875
 74
     0
  0
LTYPE
  5
271C
330
5
100
AcDbSymbolTableRecord
100
AcDbLinetypeTableRecord
  2
ASULTYPE
 70
     0
  3
Ausgezogene Linie
 72
    65
 73
     2
 40
3.0
 49
2.5
 74
     0
 49
0.5
 74
     0
  0
LTYPE
  5
271D
330
5
100
AcDbSymbolTableRecord
100
AcDbLinetypeTableRecord
  2
ASVLTYPE
 70
     0
  3
__ __ __ __ __ __ __ __ __ __ __ __ __ __ __ __ __ __ __ __ __
 72
    65
 73
     2
 40
0.75
 49
0.5
 74
     0
 49
-0.25
 74
     0
  0
ENDTAB
  0
TABLE
  2
LAYER
  5
2
330
0
100
AcDbSymbolTable
 70
    14
  0
LAYER
  5
10
330
2
100
AcDbSymbolTableRecord
100
AcDbLayerTableRecord
  2
0
 70
     0
 62
     7
  6
Continuous
370
    -3
390
F
  0
LAYER
  5
357
330
2
100
AcDbSymbolTableRecord
100
AcDbLayerTableRecord
  2
AM_0
 70
     0
 62
     7
  6
Continuous
370
    50
390
F
  0
LAYER
  5
5DE
330
2
100
AcDbSymbolTableRecord
100
AcDbLayerTableRecord
  2
Defpoints
 70
     0
 62
     7
  6
Continuous
290
     0
370
    -3
390
F
  0
LAYER
  5
F3B
330
2
100
AcDbSymbolTableRecord
100
AcDbLayerTableRecord
  2
Zarge-AM_0
 70
     0
 62
     7
  6
Continuous
370
    50
390
F
  0
LAYER
  5
F46
330
2
100
AcDbSymbolTableRecord
100
AcDbLayerTableRecord
  2
Abdeckleiste-AM_0
 70
     0
 62
     7
  6
Continuous
370
    50
390
F
  0
LAYER
  5
F4C
330
2
100
AcDbSymbolTableRecord
100
AcDbLayerTableRecord
  2
Torblatt-AM_0
 70
     0
 62
     7
  6
Continuous
370
    50
390
F
  0
LAYER
  5
F81
330
2
100
AcDbSymbolTableRecord
100
AcDbLayerTableRecord
  2
Torblatt-AM_7
 70
     0
 62
     4
  6
AM_DIN_G_W050
370
    25
390
F
  0
LAYER
  5
F91
330
2
100
AcDbSymbolTableRecord
100
AcDbLayerTableRecord
  2
AM_VIEWS
 70
     0
 62
     1
  6
Continuous
290
     0
370
    25
390
F
  0
LAYER
  5
FD5
330
2
100
AcDbSymbolTableRecord
100
AcDbLayerTableRecord
  2
AM_BOR
 70
     0
 62
     7
  6
Continuous
370
    50
390
F
  0
LAYER
  5
11FE
330
2
100
AcDbSymbolTableRecord
100
AcDbLayerTableRecord
  2
AM_8
 70
     0
 62
     1
  6
Continuous
370
    25
390
F
  0
LAYER
  5
124B
330
2
100
AcDbSymbolTableRecord
100
AcDbLayerTableRecord
  2
AM_5
 70
     0
 62
     3
  6
Continuous
370
    25
390
F
  0
LAYER
  5
12ED
330
2
100
AcDbSymbolTableRecord
100
AcDbLayerTableRecord
  2
AM_7
 70
     0
 62
     4
  6
AM_DIN_G_W050
370
    25
390
F
  0
LAYER
  5
1935
330
2
100
AcDbSymbolTableRecord
100
AcDbLayerTableRecord
  2
AM_4
 70
     0
 62
     3
  6
Continuous
370
    25
390
F
  0
LAYER
  5
1936
330
2
100
AcDbSymbolTableRecord
100
AcDbLayerTableRecord
  2
AM_6
 70
     0
 62
     2
  6
Continuous
370
    35
390
F
  0
ENDTAB
  0
TABLE
  2
STYLE
  5
3
330
0
100
AcDbSymbolTable
 70
     4
  0
STYLE
  5
11
330
3
100
AcDbSymbolTableRecord
100
AcDbTextStyleTableRecord
  2
STANDARD
 70
     0
 40
0.0
 41
1.0
 50
0.0
 71
     0
 42
2.5
  3
ISOCP.SHX
  4

  0
STYLE
  5
F0
330
3
100
AcDbSymbolTableRecord
100
AcDbTextStyleTableRecord
  2

 70
     1
 40
0.0
 41
1.0
 50
0.0
 71
     0
 42
2.5
  3
ltypeshp.shx
  4

  0
STYLE
  5
19B
330
3
100
AcDbSymbolTableRecord
100
AcDbTextStyleTableRecord
  2
ACDINTS
 70
     0
 40
1.0
 41
1.0
 50
0.0
 71
     0
 42
2.5
  3
isocp.shx
  4

  0
STYLE
  5
1A3
330
3
100
AcDbSymbolTableRecord
100
AcDbTextStyleTableRecord
  2
ACDINGDT
 70
     0
 40
0.0
 41
1.0
 50
0.0
 71
     0
 42
2.5
  3
amgdt.shx
  4

  0
ENDTAB
  0
TABLE
  2
VIEW
  5
6
330
0
100
AcDbSymbolTable
 70
     6
  0
VIEW
  5
2CA
330
6
100
AcDbSymbolTableRecord
100
AcDbViewTableRecord
  2
AM_VIEW1
 70
     1
 40
148.4629974365232
 10
130.5352514707124
 20
216.3444962501525
 41
271.2304760859562
 11
0.0
 21
0.0
 31
1.0
 12
0.0
 22
0.0
 32
0.0
 42
50.0
 43
0.0
 44
0.0
 50
0.0
 71
     0
281
     0
 72
     0
  0
VIEW
  5
2CB
330
6
100
AcDbSymbolTableRecord
100
AcDbViewTableRecord
  2
AM_VIEW2
 70
     1
 40
148.4629974365232
 10
279.2514306581937
 20
216.3444962501525
 41
271.2304760859562
 11
0.0
 21
0.0
 31
1.0
 12
0.0
 22
0.0
 32
0.0
 42
50.0
 43
0.0
 44
0.0
 50
0.0
 71
     0
281
     0
 72
     0
  0
VIEW
  5
2CC
330
6
100
AcDbSymbolTableRecord
100
AcDbViewTableRecord
  2
AM_VIEW3
 70
     1
 40
148.4629974365232
 10
130.5352514707124
 20
67.88149881362915
 41
271.2304760859562
 11
0.0
 21
0.0
 31
1.0
 12
0.0
 22
0.0
 32
0.0
 42
50.0
 43
0.0
 44
0.0
 50
0.0
 71
     0
281
     0
 72
     0
  0
VIEW
  5
2CD
330
6
100
AcDbSymbolTableRecord
100
AcDbViewTableRecord
  2
AM_VIEW4
 70
     1
 40
148.4629974365232
 10
279.2514306581937
 20
67.88149881362915
 41
271.2304760859562
 11
0.0
 21
0.0
 31
1.0
 12
0.0
 22
0.0
 32
0.0
 42
50.0
 43
0.0
 44
0.0
 50
0.0
 71
     0
281
     0
 72
     0
  0
VIEW
  5
2CE
330
6
100
AcDbSymbolTableRecord
100
AcDbViewTableRecord
  2
AM_VIEW5
 70
     1
 40
148.4629974365232
 10
204.8933410644531
 20
142.1129975318908
 41
271.2304760859562
 11
0.0
 21
0.0
 31
1.0
 12
0.0
 22
0.0
 32
0.0
 42
50.0
 43
0.0
 44
0.0
 50
0.0
 71
     0
281
     0
 72
     0
  0
VIEW
  5
2CF
330
6
100
AcDbSymbolTableRecord
100
AcDbViewTableRecord
  2
AM_VIEW6
 70
     1
 40
296.923025613098
 10
204.8933410644531
 20
142.1129975318908
 41
542.4555275623909
 11
0.0
 21
0.0
 31
1.0
 12
0.0
 22
0.0
 32
0.0
 42
50.0
 43
0.0
 44
0.0
 50
0.0
 71
     0
281
     0
 72
     0
  0
ENDTAB
  0
TABLE
  2
UCS
  5
7
330
0
100
AcDbSymbolTable
 70
     0
  0
ENDTAB
  0
TABLE
  2
APPID
  5
9
330
0
100
AcDbSymbolTable
 70
    32
  0
APPID
  5
12
330
9
100
AcDbSymbolTableRecord
100
AcDbRegAppTableRecord
  2
ACAD
 70
     0
  0
APPID
  5
2C
330
9
100
AcDbSymbolTableRecord
100
AcDbRegAppTableRecord
  2
MCAD_NO_VIS
 70
     0
  0
APPID
  5
2D
330
9
100
AcDbSymbolTableRecord
100
AcDbRegAppTableRecord
  2
ACAD_TEMP_GRAPHIC
 70
     0
  0
APPID
  5
64
330
9
100
AcDbSymbolTableRecord
100
AcDbRegAppTableRecord
  2
AD_DRAW
 70
     0
  0
APPID
  5
67
330
9
100
AcDbSymbolTableRecord
100
AcDbRegAppTableRecord
  2
ACATTRIBSERVICES
 70
     0
  0
APPID
  5
9F
330
9
100
AcDbSymbolTableRecord
100
AcDbRegAppTableRecord
  2
ASURF_PCURVE_APPNAME
 70
     0
  0
APPID
  5
A7
330
9
100
AcDbSymbolTableRecord
100
AcDbRegAppTableRecord
  2
GENIUS_GENDIM_13
 70
     0
  0
APPID
  5
A8
330
9
100
AcDbSymbolTableRecord
100
AcDbRegAppTableRecord
  2
GENIUS_GENDTOL_13
 70
     0
  0
APPID
  5
A9
330
9
100
AcDbSymbolTableRecord
100
AcDbRegAppTableRecord
  2
GENIUS_GE3DTOL_13
 70
     0
  0
APPID
  5
D7
330
9
100
AcDbSymbolTableRecord
100
AcDbRegAppTableRecord
  2
DESIGNERASSEMBLIES
 70
     0
  0
APPID
  5
E0
330
9
100
AcDbSymbolTableRecord
100
AcDbRegAppTableRecord
  2
ACADM_DIM_EDIT
 70
     0
  0
APPID
  5
1DB
330
9
100
AcDbSymbolTableRecord
100
AcDbRegAppTableRecord
  2
GEVMK
 70
     0
  0
APPID
  5
27F
330
9
100
AcDbSymbolTableRecord
100
AcDbRegAppTableRecord
  2
GENIUS_GENBLLY_14
 70
     0
  0
APPID
  5
30E
330
9
100
AcDbSymbolTableRecord
100
AcDbRegAppTableRecord
  2
GENIUS_GENTRA_14
 70
     0
  0
APPID
  5
323
330
9
100
AcDbSymbolTableRecord
100
AcDbRegAppTableRecord
  2
GENIUS_GENODEF_13
 70
     0
  0
APPID
  5
324
330
9
100
AcDbSymbolTableRecord
100
AcDbRegAppTableRecord
  2
GENIUS_GENOBJ-N-TIT_13
 70
     0
  0
APPID
  5
325
330
9
100
AcDbSymbolTableRecord
100
AcDbRegAppTableRecord
  2
GENIUS_GENTITLE_13
 70
     0
  0
APPID
  5
326
330
9
100
AcDbSymbolTableRecord
100
AcDbRegAppTableRecord
  2
GENIUS_GENOENT_13
 70
     0
  0
APPID
  5
327
330
9
100
AcDbSymbolTableRecord
100
AcDbRegAppTableRecord
  2
GENIUS_GENOREF_13
 70
     0
  0
APPID
  5
328
330
9
100
AcDbSymbolTableRecord
100
AcDbRegAppTableRecord
  2
GENIUS_GENOLIS_13
 70
     0
  0
APPID
  5
329
330
9
100
AcDbSymbolTableRecord
100
AcDbRegAppTableRecord
  2
GENIUS_GENZVEED_13
 70
     0
  0
APPID
  5
32A
330
9
100
AcDbSymbolTableRecord
100
AcDbRegAppTableRecord
  2
GENIUS_GENSCREG_15
 70
     0
  0
APPID
  5
32B
330
9
100
AcDbSymbolTableRecord
100
AcDbRegAppTableRecord
  2
GENIUS_GENOBJ-N-SDF_13
 70
     0
  0
APPID
  5
5E2
330
9
100
AcDbSymbolTableRecord
100
AcDbRegAppTableRecord
  2
DCO15
 70
     0
  0
APPID
  5
F83
330
9
100
AcDbSymbolTableRecord
100
AcDbRegAppTableRecord
  2
GENIUS_GENOBJ-N-CEN_13
 70
     0
  0
APPID
  5
11FF
330
9
100
AcDbSymbolTableRecord
100
AcDbRegAppTableRecord
  2
GENIUS_GENOBJ-N-HTC_13
 70
     0
  0
APPID
  5
1200
330
9
100
AcDbSymbolTableRecord
100
AcDbRegAppTableRecord
  2
GENIUS_GENHATCH_13
 70
     0
  0
APPID
  5
18C5
330
9
100
AcDbSymbolTableRecord
100
AcDbRegAppTableRecord
  2
GENIUS_GENBHRL_14
 70
     0
  0
APPID
  5
1938
330
9
100
AcDbSymbolTableRecord
100
AcDbRegAppTableRecord
  2
GENIUS_GENOBJ-N-ZOO_13
 70
     0
  0
APPID
  5
1939
330
9
100
AcDbSymbolTableRecord
100
AcDbRegAppTableRecord
  2
GENIUS_GENZOO_15
 70
     0
  0
APPID
  5
2585
330
9
100
AcDbSymbolTableRecord
100
AcDbRegAppTableRecord
  2
GENIUS_GENREC_14
 70
     0
  0
APPID
  5
2586
330
9
100
AcDbSymbolTableRecord
100
AcDbRegAppTableRecord
  2
GENIUS_GENOBJ-N-REC_13
 70
     0
  0
ENDTAB
  0
TABLE
  2
DIMSTYLE
  5
A
330
0
100
AcDbSymbolTable
 70
     7
100
AcDbDimStyleTable
 71
     5
340
27
340
1A8
340
1A9
340
1AA
340
1A7
  0
DIMSTYLE
105
27
102
{ACAD_REACTORS
330
124C
330
12FF
330
138F
330
1417
330
14C5
330
16B3
330
173F
330
17E3
330
195B
330
19FF
330
1A8A
330
1CC7
330
1D6E
330
1DCC
330
1E65
330
1B29
330
1BB1
330
1C3C
330
2078
330
2076
330
2077
330
2074
330
2072
330
2073
330
2071
330
239D
330
2441
102
}
330
A
100
AcDbSymbolTableRecord
100
AcDbDimStyleTableRecord
  2
ISO-35
 70
     0
 41
3.5
 42
0.0
 43
10.0
 44
2.0
 73
     0
 74
     0
 77
     1
 78
     8
 79
     2
140
3.5
141
-0.09
143
0.03937007874016
147
1.0
171
     3
172
     1
176
   256
177
   256
178
     2
179
     4
274
     3
278
    44
283
     0
284
     8
289
     0
340
11
371
    -1
372
    -1
  0
DIMSTYLE
105
1A7
330
A
100
AcDbSymbolTableRecord
100
AcDbDimStyleTableRecord
  2
ISO-35$3
 70
     0
 41
3.5
 42
0.0
 43
10.0
 44
2.0
 73
     0
 74
     0
 77
     1
 78
     8
 79
     2
140
3.5
141
-0.09
143
0.03937007874016
147
1.0
171
     3
176
   256
177
   256
178
     2
179
     4
274
     3
278
    44
283
     0
284
     8
288
     1
289
     0
340
11
371
    -1
372
    -1
  0
DIMSTYLE
105
1A8
330
A
100
AcDbSymbolTableRecord
100
AcDbDimStyleTableRecord
  2
ISO-35$4
 70
     0
 41
3.5
 42
0.0
 43
10.0
 44
2.0
 73
     0
 74
     0
 77
     1
 78
     8
 79
     2
140
3.5
141
-0.09
143
0.03937007874016
147
1.0
171
     3
176
   256
177
   256
178
     2
179
     4
274
     3
278
    44
283
     0
284
     8
288
     1
289
     0
340
11
371
    -1
372
    -1
  0
DIMSTYLE
105
1A9
330
A
100
AcDbSymbolTableRecord
100
AcDbDimStyleTableRecord
  2
ISO-35$6
 70
     0
 41
3.5
 42
0.0
 43
10.0
 44
2.0
 73
     0
 74
     0
 78
     8
 79
     2
140
3.5
141
-0.09
143
0.03937007874016
147
1.0
171
     3
172
     1
176
   256
177
   256
178
     2
179
     4
274
     3
278
    44
283
     0
284
     8
289
     0
340
11
371
    -1
372
    -1
  0
DIMSTYLE
105
1AA
330
A
100
AcDbSymbolTableRecord
100
AcDbDimStyleTableRecord
  2
ISO-35$7
 70
     0
 41
3.5
 42
0.0
 43
10.0
 44
2.0
 73
     0
 74
     0
 77
     1
 78
     8
 79
     2
140
5.0
141
-0.09
143
0.03937007874016
147
1.5
171
     3
172
     1
176
   256
177
   256
178
     2
179
     4
274
     3
278
    44
283
     0
284
     8
289
     0
340
11
371
    -1
372
    -1
  0
DIMSTYLE
105
1AB
330
A
100
AcDbSymbolTableRecord
100
AcDbDimStyleTableRecord
  2
ISO-35$SF
 70
     0
 41
2.5
 42
0.0
 43
10.0
 44
2.0
 73
     0
 74
     0
 75
     1
 76
     1
 77
     1
 78
     8
 79
     2
140
3.5
141
0.0
143
0.03937007874016
147
1.0
171
     3
172
     1
176
   256
177
   256
178
     2
179
     4
274
     3
278
    44
283
     0
284
     8
289
     0
340
11
371
    -1
372
    -1
  0
DIMSTYLE
105
1B0
330
A
100
AcDbSymbolTableRecord
100
AcDbDimStyleTableRecord
  2
ISO-35$SH
 70
     0
 41
2.5
 42
0.0
 43
10.0
 44
2.0
 73
     0
 74
     0
 75
     1
 76
     1
 77
     1
 78
     8
 79
     2
140
3.5
141
0.0
143
0.03937007874016
144
2.0
147
1.0
171
     3
172
     1
173
     1
176
   256
177
   256
178
     2
179
     4
274
     3
278
    44
283
     0
284
     8
289
     0
340
11
341
1AC
343
1AC
371
    -1
372
    -1
  0
ENDTAB
  0
TABLE
  2
BLOCK_RECORD
  5
1
330
0
100
AcDbSymbolTable
 70
    37
  0
BLOCK_RECORD
  5
1F
102
{ACAD_XDICTIONARY
360
18D
102
}
330
1
100
AcDbSymbolTableRecord
100
AcDbBlockTableRecord
  2
*Model_Space
340
22
  0
BLOCK_RECORD
  5
1B
330
1
100
AcDbSymbolTableRecord
100
AcDbBlockTableRecord
  2
*Paper_Space
340
1E
  0
BLOCK_RECORD
  5
23
330
1
100
AcDbSymbolTableRecord
100
AcDbBlockTableRecord
  2
*Paper_Space0
340
26
  0
BLOCK_RECORD
  5
CE
330
1
100
AcDbSymbolTableRecord
100
AcDbBlockTableRecord
  2
*U1
340
0
  0
BLOCK_RECORD
  5
1AC
330
1
100
AcDbSymbolTableRecord
100
AcDbBlockTableRecord
  2
GENAXEH
340
0
  0
BLOCK_RECORD
  5
5DA
330
1
100
AcDbSymbolTableRecord
100
AcDbBlockTableRecord
  2
*U3
340
0
102
{BLKREFS
331
A2F
331
A2C
331
272E
331
2731
331
2762
331
2765
102
}
  0
BLOCK_RECORD
  5
FCD
330
1
100
AcDbSymbolTableRecord
100
AcDbBlockTableRecord
  2
*U4
340
0
102
{BLKREFS
331
101F
331
101C
331
272F
331
2732
331
2763
331
2766
102
}
  0
BLOCK_RECORD
  5
FD7
330
1
100
AcDbSymbolTableRecord
100
AcDbBlockTableRecord
  2
A3_NOVOFERM
340
0
102
{BLKREFS
331
1026
102
}
  0
BLOCK_RECORD
  5
1029
330
1
100
AcDbSymbolTableRecord
100
AcDbBlockTableRecord
  2
*U6
340
0
102
{BLKREFS
331
116E
331
116B
331
2730
331
2733
331
2764
331
2767
102
}
  0
BLOCK_RECORD
  5
102C
330
1
100
AcDbSymbolTableRecord
100
AcDbBlockTableRecord
  2
Logo novoferm neu
340
0
102
{BLKREFS
331
115C
102
}
1001
ACAD
1000
DesignCenter Data
1002
{
1070
     1
1070
     4
1002
}
  0
BLOCK_RECORD
  5
1104
330
1
100
AcDbSymbolTableRecord
100
AcDbBlockTableRecord
  2
NOVOFERM
340
0
102
{BLKREFS
331
1175
102
}
  0
BLOCK_RECORD
  5
124D
330
1
100
AcDbSymbolTableRecord
100
AcDbBlockTableRecord
  2
*D9
340
0
  0
BLOCK_RECORD
  5
1300
330
1
100
AcDbSymbolTableRecord
100
AcDbBlockTableRecord
  2
*D10
340
0
  0
BLOCK_RECORD
  5
1390
330
1
100
AcDbSymbolTableRecord
100
AcDbBlockTableRecord
  2
*D11
340
0
  0
BLOCK_RECORD
  5
1418
330
1
100
AcDbSymbolTableRecord
100
AcDbBlockTableRecord
  2
*D12
340
0
  0
BLOCK_RECORD
  5
14C6
330
1
100
AcDbSymbolTableRecord
100
AcDbBlockTableRecord
  2
*D13
340
0
  0
BLOCK_RECORD
  5
16B4
330
1
100
AcDbSymbolTableRecord
100
AcDbBlockTableRecord
  2
*D14
340
0
  0
BLOCK_RECORD
  5
1740
330
1
100
AcDbSymbolTableRecord
100
AcDbBlockTableRecord
  2
*D15
340
0
  0
BLOCK_RECORD
  5
17E4
330
1
100
AcDbSymbolTableRecord
100
AcDbBlockTableRecord
  2
*D16
340
0
  0
BLOCK_RECORD
  5
18D0
330
1
100
AcDbSymbolTableRecord
100
AcDbBlockTableRecord
  2
GENZOOSWGF6Y1
340
0
102
{BLKREFS
331
192F
102
}
  0
BLOCK_RECORD
  5
195C
330
1
100
AcDbSymbolTableRecord
100
AcDbBlockTableRecord
  2
*D18
340
0
  0
BLOCK_RECORD
  5
1A00
330
1
100
AcDbSymbolTableRecord
100
AcDbBlockTableRecord
  2
*D19
340
0
  0
BLOCK_RECORD
  5
1A8B
330
1
100
AcDbSymbolTableRecord
100
AcDbBlockTableRecord
  2
*D20
340
0
  0
BLOCK_RECORD
  5
1B2A
330
1
100
AcDbSymbolTableRecord
100
AcDbBlockTableRecord
  2
*D21
340
0
  0
BLOCK_RECORD
  5
1BB2
330
1
100
AcDbSymbolTableRecord
100
AcDbBlockTableRecord
  2
*D22
340
0
  0
BLOCK_RECORD
  5
1C3D
330
1
100
AcDbSymbolTableRecord
100
AcDbBlockTableRecord
  2
*D23
340
0
  0
BLOCK_RECORD
  5
1CC8
330
1
100
AcDbSymbolTableRecord
100
AcDbBlockTableRecord
  2
*D24
340
0
  0
BLOCK_RECORD
  5
1D6F
330
1
100
AcDbSymbolTableRecord
100
AcDbBlockTableRecord
  2
*D25
340
0
  0
BLOCK_RECORD
  5
1DCD
330
1
100
AcDbSymbolTableRecord
100
AcDbBlockTableRecord
  2
*D26
340
0
  0
BLOCK_RECORD
  5
1E66
330
1
100
AcDbSymbolTableRecord
100
AcDbBlockTableRecord
  2
*D27
340
0
  0
BLOCK_RECORD
  5
209D
330
1
100
AcDbSymbolTableRecord
100
AcDbBlockTableRecord
  2
*D28
340
0
  0
BLOCK_RECORD
  5
20A7
330
1
100
AcDbSymbolTableRecord
100
AcDbBlockTableRecord
  2
*D29
340
0
  0
BLOCK_RECORD
  5
20B1
330
1
100
AcDbSymbolTableRecord
100
AcDbBlockTableRecord
  2
*D30
340
0
  0
BLOCK_RECORD
  5
20BB
330
1
100
AcDbSymbolTableRecord
100
AcDbBlockTableRecord
  2
*D31
340
0
  0
BLOCK_RECORD
  5
20C9
330
1
100
AcDbSymbolTableRecord
100
AcDbBlockTableRecord
  2
*D32
340
0
  0
BLOCK_RECORD
  5
20D5
330
1
100
AcDbSymbolTableRecord
100
AcDbBlockTableRecord
  2
*D33
340
0
  0
BLOCK_RECORD
  5
20E1
330
1
100
AcDbSymbolTableRecord
100
AcDbBlockTableRecord
  2
*D34
340
0
  0
BLOCK_RECORD
  5
239E
330
1
100
AcDbSymbolTableRecord
100
AcDbBlockTableRecord
  2
*D35
340
0
  0
BLOCK_RECORD
  5
2442
330
1
100
AcDbSymbolTableRecord
100
AcDbBlockTableRecord
  2
*D36
340
0
  0
ENDTAB
  0
ENDSEC
  0
SECTION
  2
BLOCKS
  0
BLOCK
  5
20
330
1F
100
AcDbEntity
  8
0
100
AcDbBlockBegin
  2
*Model_Space
 70
     0
 10
0.0
 20
0.0
 30
0.0
  3
*Model_Space
  1

  0
ENDBLK
  5
21
330
1F
100
AcDbEntity
  8
0
100
AcDbBlockEnd
  0
BLOCK
  5
1C
330
1B
100
AcDbEntity
 67
     1
  8
0
100
AcDbBlockBegin
  2
*Paper_Space
 70
     0
 10
0.0
 20
0.0
 30
0.0
  3
*Paper_Space
  1

  0
ENDBLK
  5
1D
330
1B
100
AcDbEntity
 67
     1
  8
0
100
AcDbBlockEnd
  0
BLOCK
  5
24
330
23
100
AcDbEntity
  8
0
100
AcDbBlockBegin
  2
*Paper_Space0
 70
     0
 10
0.0
 20
0.0
 30
0.0
  3
*Paper_Space0
  1

  0
VIEWPORT
  5
272D
330
23
100
AcDbEntity
  8
0
100
AcDbViewport
 10
139.5835723876952
 20
97.80057859420777
 30
0.0
 40
395.4976385604969
 41
222.062198699951
 69
     0
 12
139.5835723876952
 22
97.80057859420777
 13
0.0
 23
0.0
 14
10.0
 24
10.0
 15
10.0
 25
10.0
 16
0.0
 26
0.0
 36
1.0
 17
0.0
 27
0.0
 37
0.0
 42
50.0
 43
0.0
 44
0.0
 45
222.062198699951
 50
0.0
 51
0.0
 72
 20000
 90
    32800
  1

281
     0
 71
     1
 74
     0
110
0.0
120
0.0
130
0.0
111
1.0
121
0.0
131
0.0
112
0.0
122
1.0
132
0.0
 79
     0
146
0.0
  0
ENDBLK
  5
25
330
23
100
AcDbEntity
  8
0
100
AcDbBlockEnd
  0
BLOCK
  5
CF
330
CE
100
AcDbEntity
  8
0
100
AcDbBlockBegin
  2
*U1
 70
     1
 10
0.0
 20
0.0
 30
0.0
  3
*U1
  1

  0
INSERT
  5
2762
330
CE
100
AcDbEntity
  8
AM_0
100
AcDbBlockReference
  2
*U3
 10
0.0
 20
0.0
 30
0.0
  0
INSERT
  5
2763
330
CE
100
AcDbEntity
  8
AM_0
100
AcDbBlockReference
  2
*U4
 10
0.0
 20
0.0
 30
0.0
  0
INSERT
  5
2764
330
CE
100
AcDbEntity
  8
AM_0
100
AcDbBlockReference
  2
*U6
 10
0.0
 20
0.0
 30
0.0
  0
ENDBLK
  5
D0
330
CE
100
AcDbEntity
  8
0
100
AcDbBlockEnd
  0
BLOCK
  5
1AE
330
1AC
100
AcDbEntity
  8
0
100
AcDbBlockBegin
  2
GENAXEH
 70
     0
 10
0.0
 20
0.0
 30
0.0
  3
GENAXEH
  1

  0
LINE
  5
1AD
330
1AC
100
AcDbEntity
  8
0
100
AcDbLine
 10
-1.0
 20
0.0
 30
0.0
 11
1.0
 21
0.0
 31
0.0
  0
ENDBLK
  5
1AF
330
1AC
100
AcDbEntity
  8
0
100
AcDbBlockEnd
  0
BLOCK
  5
5DB
330
5DA
100
AcDbEntity
  8
0
100
AcDbBlockBegin
  2
*U3
 70
     1
 10
0.0
 20
0.0
 30
0.0
  3
*U3
  1

  0
ENDBLK
  5
5DC
330
5DA
100
AcDbEntity
  8
0
100
AcDbBlockEnd
  0
BLOCK
  5
FCE
330
FCD
100
AcDbEntity
  8
0
100
AcDbBlockBegin
  2
*U4
 70
     1
 10
0.0
 20
0.0
 30
0.0
  3
*U4
  1

  0
ENDBLK
  5
FCF
330
FCD
100
AcDbEntity
  8
0
100
AcDbBlockEnd
  0
BLOCK
  5
1014
330
FD7
100
AcDbEntity
  8
0
100
AcDbBlockBegin
  2
A3_NOVOFERM
 70
     0
 10
0.0
 20
0.0
 30
0.0
  3
A3_NOVOFERM
  1

  0
LINE
  5
FD8
330
FD7
100
AcDbEntity
  8
AM_BOR
 62
     1
370
    25
100
AcDbLine
 10
219.1199999999998
 20
5.000000000000023
 30
0.0
 11
4.999999999999943
 21
5.000000000000047
 31
0.0
  0
TEXT
  5
FD9
330
FD7
100
AcDbEntity
  8
AM_BOR
 62
     1
370
    25
100
AcDbText
 10
403.0
 20
257.0
 30
0.0
 40
4.0
  1
A
100
AcDbText
  0
TEXT
  5
FDA
330
FD7
100
AcDbEntity
  8
AM_BOR
 62
     1
370
    25
100
AcDbText
 10
403.0
 20
211.0
 30
0.0
 40
4.0
  1
B
100
AcDbText
  0
TEXT
  5
FDB
330
FD7
100
AcDbEntity
  8
AM_BOR
 62
     1
370
    25
100
AcDbText
 10
403.0
 20
165.0
 30
0.0
 40
4.0
  1
C
100
AcDbText
  0
TEXT
  5
FDC
330
FD7
100
AcDbEntity
  8
AM_BOR
 62
     1
370
    25
100
AcDbText
 10
403.0
 20
118.0
 30
0.0
 40
4.0
  1
D
100
AcDbText
  0
TEXT
  5
FDD
330
FD7
100
AcDbEntity
  8
AM_BOR
 62
     1
370
    25
100
AcDbText
 10
403.0
 20
72.0
 30
0.0
 40
4.0
  1
E
100
AcDbText
  0
TEXT
  5
FDE
330
FD7
100
AcDbEntity
  8
AM_BOR
 62
     1
370
    25
100
AcDbText
 10
403.0
 20
26.0
 30
0.0
 40
4.0
  1
F
100
AcDbText
  0
LINE
  5
FDF
330
FD7
100
AcDbEntity
  8
AM_BOR
 62
     1
370
    25
100
AcDbLine
 10
407.0
 20
235.83
 30
0.0
 11
402.0
 21
235.83
 31
0.0
  0
LINE
  5
FE0
330
FD7
100
AcDbEntity
  8
AM_BOR
 62
     1
370
    25
100
AcDbLine
 10
407.0
 20
189.664
 30
0.0
 11
402.0
 21
189.664
 31
0.0
  0
LINE
  5
FE1
330
FD7
100
AcDbEntity
  8
AM_BOR
 62
     1
370
    25
100
AcDbLine
 10
407.0
 20
143.4979999999999
 30
0.0
 11
402.0
 21
143.4979999999999
 31
0.0
  0
LINE
  5
FE2
330
FD7
100
AcDbEntity
  8
AM_BOR
 62
     1
370
    25
100
AcDbLine
 10
407.0
 20
97.33200000000001
 30
0.0
 11
402.0
 21
97.33200000000001
 31
0.0
  0
LINE
  5
FE3
330
FD7
100
AcDbEntity
  8
AM_BOR
 62
     1
370
    25
100
AcDbLine
 10
407.0
 20
51.166
 30
0.0
 11
402.0
 21
51.166
 31
0.0
  0
LINE
  5
FE4
330
FD7
100
AcDbEntity
  8
AM_BOR
 62
     1
370
    25
100
AcDbLine
 10
52.0
 20
282.4999999999998
 30
0.0
 11
52.0
 21
277.4999999999999
 31
0.0
  0
LINE
  5
FE5
330
FD7
100
AcDbEntity
  8
AM_BOR
 62
     1
370
    25
100
AcDbLine
 10
102.0
 20
282.4999999999998
 30
0.0
 11
102.0
 21
277.4999999999999
 31
0.0
  0
LINE
  5
FE6
330
FD7
100
AcDbEntity
  8
AM_BOR
 62
     1
370
    25
100
AcDbLine
 10
152.0
 20
282.4999999999998
 30
0.0
 11
152.0
 21
277.4999999999999
 31
0.0
  0
LINE
  5
FE7
330
FD7
100
AcDbEntity
  8
AM_BOR
 62
     1
370
    25
100
AcDbLine
 10
202.0
 20
282.4999999999998
 30
0.0
 11
202.0
 21
277.4999999999999
 31
0.0
  0
LINE
  5
FE8
330
FD7
100
AcDbEntity
  8
AM_BOR
 62
     1
370
    25
100
AcDbLine
 10
252.0
 20
282.4999999999998
 30
0.0
 11
252.0
 21
277.4999999999999
 31
0.0
  0
LINE
  5
FE9
330
FD7
100
AcDbEntity
  8
AM_BOR
 62
     1
370
    25
100
AcDbLine
 10
302.0
 20
282.4999999999998
 30
0.0
 11
302.0
 21
277.4999999999999
 31
0.0
  0
LINE
  5
FEA
330
FD7
100
AcDbEntity
  8
AM_BOR
 62
     1
370
    25
100
AcDbLine
 10
352.0
 20
282.4999999999998
 30
0.0
 11
352.0
 21
277.4999999999999
 31
0.0
  0
TEXT
  5
FEB
330
FD7
100
AcDbEntity
  8
AM_BOR
 62
     1
370
    25
100
AcDbText
 10
376.0
 20
277.9999999999999
 30
0.0
 40
4.0
  1
8
100
AcDbText
  0
TEXT
  5
FEC
330
FD7
100
AcDbEntity
  8
AM_BOR
 62
     1
370
    25
100
AcDbText
 10
326.0
 20
277.9999999999999
 30
0.0
 40
4.0
  1
7
100
AcDbText
  0
TEXT
  5
FED
330
FD7
100
AcDbEntity
  8
AM_BOR
 62
     1
370
    25
100
AcDbText
 10
276.0
 20
277.9999999999999
 30
0.0
 40
4.0
  1
6
100
AcDbText
  0
TEXT
  5
FEE
330
FD7
100
AcDbEntity
  8
AM_BOR
 62
     1
370
    25
100
AcDbText
 10
225.4999999999999
 20
277.9999999999999
 30
0.0
 40
4.0
  1
5
100
AcDbText
  0
TEXT
  5
FEF
330
FD7
100
AcDbEntity
  8
AM_BOR
 62
     1
370
    25
100
AcDbText
 10
175.5
 20
277.9999999999999
 30
0.0
 40
4.0
  1
4
100
AcDbText
  0
TEXT
  5
FF0
330
FD7
100
AcDbEntity
  8
AM_BOR
 62
     1
370
    25
100
AcDbText
 10
125.5
 20
277.9999999999999
 30
0.0
 40
4.0
  1
3
100
AcDbText
  0
TEXT
  5
FF1
330
FD7
100
AcDbEntity
  8
AM_BOR
 62
     1
370
    25
100
AcDbText
 10
75.5
 20
277.9999999999999
 30
0.0
 40
4.0
  1
2
100
AcDbText
  0
TEXT
  5
FF2
330
FD7
100
AcDbEntity
  8
AM_BOR
 62
     1
370
    25
100
AcDbText
 10
25.5
 20
277.9999999999999
 30
0.0
 40
4.0
  1
1
100
AcDbText
  0
TEXT
  5
FF3
330
FD7
100
AcDbEntity
  8
AM_BOR
 62
     1
370
    25
100
AcDbText
 10
25.5
 20
0.5
 30
0.0
 40
4.0
  1
1
100
AcDbText
  0
TEXT
  5
FF4
330
FD7
100
AcDbEntity
  8
AM_BOR
 62
     1
370
    25
100
AcDbText
 10
75.5
 20
0.5
 30
0.0
 40
4.0
  1
2
100
AcDbText
  0
TEXT
  5
FF5
330
FD7
100
AcDbEntity
  8
AM_BOR
 62
     1
370
    25
100
AcDbText
 10
125.5
 20
0.5
 30
0.0
 40
4.0
  1
3
100
AcDbText
  0
TEXT
  5
FF6
330
FD7
100
AcDbEntity
  8
AM_BOR
 62
     1
370
    25
100
AcDbText
 10
175.5
 20
0.5
 30
0.0
 40
4.0
  1
4
100
AcDbText
  0
TEXT
  5
FF7
330
FD7
100
AcDbEntity
  8
AM_BOR
 62
     1
370
    25
100
AcDbText
 10
1.0
 20
257.0
 30
0.0
 40
4.0
  1
A
100
AcDbText
  0
TEXT
  5
FF8
330
FD7
100
AcDbEntity
  8
AM_BOR
 62
     1
370
    25
100
AcDbText
 10
1.0
 20
211.0
 30
0.0
 40
4.0
  1
B
100
AcDbText
  0
TEXT
  5
FF9
330
FD7
100
AcDbEntity
  8
AM_BOR
 62
     1
370
    25
100
AcDbText
 10
1.0
 20
165.0
 30
0.0
 40
4.0
  1
C
100
AcDbText
  0
TEXT
  5
FFA
330
FD7
100
AcDbEntity
  8
AM_BOR
 62
     1
370
    25
100
AcDbText
 10
1.0
 20
118.0
 30
0.0
 40
4.0
  1
D
100
AcDbText
  0
TEXT
  5
FFB
330
FD7
100
AcDbEntity
  8
AM_BOR
 62
     1
370
    25
100
AcDbText
 10
1.0
 20
72.0
 30
0.0
 40
4.0
  1
E
100
AcDbText
  0
TEXT
  5
FFC
330
FD7
100
AcDbEntity
  8
AM_BOR
 62
     1
370
    25
100
AcDbText
 10
1.0
 20
26.0
 30
0.0
 40
4.0
  1
F
100
AcDbText
  0
LINE
  5
FFD
330
FD7
100
AcDbEntity
  8
AM_BOR
 62
     1
370
    25
100
AcDbLine
 10
202.0
 20
5.0
 30
0.0
 11
202.0
 21
0.0
 31
0.0
  0
LINE
  5
FFE
330
FD7
100
AcDbEntity
  8
AM_BOR
 62
     1
370
    25
100
AcDbLine
 10
152.0
 20
5.0
 30
0.0
 11
152.0
 21
0.0
 31
0.0
  0
LINE
  5
FFF
330
FD7
100
AcDbEntity
  8
AM_BOR
 62
     1
370
    25
100
AcDbLine
 10
102.0
 20
5.0
 30
0.0
 11
102.0
 21
0.0
 31
0.0
  0
LINE
  5
1000
330
FD7
100
AcDbEntity
  8
AM_BOR
 62
     1
370
    25
100
AcDbLine
 10
52.0
 20
5.0
 30
0.0
 11
52.0
 21
0.0
 31
0.0
  0
LINE
  5
1001
330
FD7
100
AcDbEntity
  8
AM_BOR
 62
     1
370
    25
100
AcDbLine
 10
5.0
 20
235.83
 30
0.0
 11
0.0
 21
235.83
 31
0.0
  0
LINE
  5
1002
330
FD7
100
AcDbEntity
  8
AM_BOR
 62
     1
370
    25
100
AcDbLine
 10
5.0
 20
189.664
 30
0.0
 11
0.0
 21
189.664
 31
0.0
  0
LINE
  5
1003
330
FD7
100
AcDbEntity
  8
AM_BOR
 62
     1
370
    25
100
AcDbLine
 10
5.0
 20
143.4979999999999
 30
0.0
 11
0.0
 21
143.4979999999999
 31
0.0
  0
LINE
  5
1004
330
FD7
100
AcDbEntity
  8
AM_BOR
 62
     1
370
    25
100
AcDbLine
 10
5.0
 20
97.33200000000001
 30
0.0
 11
0.0
 21
97.33200000000001
 31
0.0
  0
LINE
  5
1005
330
FD7
100
AcDbEntity
  8
AM_BOR
 62
     1
370
    25
100
AcDbLine
 10
5.0
 20
51.166
 30
0.0
 11
0.0
 21
51.166
 31
0.0
  0
LINE
  5
1006
330
FD7
100
AcDbEntity
  8
AM_BOR
 62
     1
370
    25
100
AcDbLine
 10
402.0
 20
277.4999999999999
 30
0.0
 11
401.9999999999998
 21
0.0
 31
0.0
  0
LINE
  5
1007
330
FD7
100
AcDbEntity
  8
AM_BOR
 62
     1
370
    25
100
AcDbLine
 10
5.000000000000016
 20
277.4999999999999
 30
0.0
 11
402.0
 21
277.4999999999999
 31
0.0
  0
LINE
  5
1008
330
FD7
100
AcDbEntity
  8
AM_BOR
 62
     1
370
    25
100
AcDbLine
 10
5.0
 20
5.0
 30
0.0
 11
5.000000000000016
 21
277.4999999999999
 31
0.0
  0
LINE
  5
1009
330
FD7
100
AcDbEntity
  8
0
100
AcDbLine
 10
406.9999999999998
 20
0.0
 30
0.0
 11
-0.0000000000000568
 21
0.0000000000000506
 31
0.0
  0
LINE
  5
100A
330
FD7
100
AcDbEntity
  8
0
100
AcDbLine
 10
407.0
 20
282.5
 30
0.0
 11
406.9999999999998
 21
0.0
 31
0.0
  0
LINE
  5
100B
330
FD7
100
AcDbEntity
  8
0
100
AcDbLine
 10
0.0000000000000178
 20
282.5
 30
0.0
 11
407.0
 21
282.5
 31
0.0
  0
TEXT
  5
100C
330
FD7
100
AcDbEntity
  8
0
 60
     1
100
AcDbText
 10
407.0
 20
282.5
 30
0.0
 40
2.0
  1
!GENTITLE-MAX
100
AcDbText
  0
TEXT
  5
100D
330
FD7
100
AcDbEntity
  8
0
 60
     1
100
AcDbText
 10
402.0
 20
277.4999999999999
 30
0.0
 40
2.0
  1
!GENTITLE-RU
100
AcDbText
  0
TEXT
  5
100E
330
FD7
100
AcDbEntity
  8
0
 60
     1
100
AcDbText
 10
401.9999999999998
 20
0.0000000000000009
 30
0.0
 40
2.0
  1
!GENTITLE-INSERT
100
AcDbText
  0
TEXT
  5
100F
330
FD7
100
AcDbEntity
  8
0
 60
     1
100
AcDbText
 10
5.0
 20
5.000000000000056
 30
0.0
 40
2.0
  1
!GENTITLE-LL
100
AcDbText
  0
LINE
  5
1010
330
FD7
100
AcDbEntity
  8
0
100
AcDbLine
 10
0.0
 20
0.0
 30
0.0
 11
0.0000000000000178
 21
282.5
 31
0.0
  0
LWPOLYLINE
  5
1011
330
FD7
100
AcDbEntity
  8
0
100
AcDbPolyline
 90
        3
 70
     1
 43
0.0
 10
121.153510385771
 20
1.997938595213789
 10
118.8464896142289
 20
1.997938595213789
 10
120.0
 20
-0.0000000000000075
  0
LWPOLYLINE
  5
1012
330
FD7
100
AcDbEntity
  8
0
100
AcDbPolyline
 90
        3
 70
     1
 43
0.0
 10
121.153510385771
 20
280.5020614047861
 10
118.8464896142289
 20
280.5020614047861
 10
119.9999999999999
 20
282.5
  0
LWPOLYLINE
  5
1013
330
FD7
100
AcDbEntity
  8
0
100
AcDbPolyline
 90
        3
 70
     1
 43
0.0
 10
220.2735103857708
 20
280.5020614047861
 10
217.9664896142288
 20
280.5020614047861
 10
219.1199999999998
 20
282.5
  0
ENDBLK
  5
1015
330
FD7
100
AcDbEntity
  8
0
100
AcDbBlockEnd
  0
BLOCK
  5
102A
330
1029
100
AcDbEntity
  8
0
100
AcDbBlockBegin
  2
*U6
 70
     1
 10
0.0
 20
0.0
 30
0.0
  3
*U6
  1

  0
ENDBLK
  5
102B
330
1029
100
AcDbEntity
  8
0
100
AcDbBlockEnd
  0
BLOCK
  5
1100
330
102C
100
AcDbEntity
  8
0
100
AcDbBlockBegin
  2
Logo novoferm neu
 70
     0
 10
0.0
 20
0.0
 30
0.0
  3
Logo novoferm neu
  1

  0
HATCH
  5
102D
330
102C
100
AcDbEntity
  8
AM_BOR
 62
     5
100
AcDbHatch
 10
0.0
 20
0.0
 30
0.0
210
0.0
220
0.0
230
1.0
  2
SOLID
 70
     1
 71
     1
 91
       11
 92
        7
 72
     1
 73
     1
 93
       28
 10
8.929509514279368
 20
6.826378262091777
 42
0.0
 10
8.380732152007114
 20
6.845177801124007
 42
0.0720213337682757
 10
8.092923467547722
 20
6.813521433001468
 42
0.1165259473727628
 10
7.638700859027467
 20
6.697329635546535
 42
0.1367219210229809
 10
7.163039496731347
 20
6.492151230066183
 42
0.1159963079754391
 10
6.762831910464633
 20
6.235274116686512
 42
0.1220180728797629
 10
6.308225750017698
 20
5.739764549487983
 42
0.106253829445134
 10
6.091316215427108
 20
5.381929970168945
 42
0.0741143291313561
 10
5.917365123077342
 20
4.966571831815141
 42
0.0963876453394347
 10
5.846534758478721
 20
4.664090488340129
 42
0.12902304919786
 10
5.835829468336276
 20
4.299349003669838
 42
0.1056032824797487
 10
5.92414293071271
 20
3.756183902980618
 42
0.147645030556999
 10
6.132866754137312
 20
3.316276484942716
 42
0.1703883319154745
 10
6.646393213164036
 20
2.913664647493923
 42
0.0926646384195119
 10
6.962484309824643
 20
2.821681920343083
 42
0.0464248298300018
 10
7.182686703245566
 20
2.788344623063287
 42
-0.0013953091678941
 10
7.704335373269452
 20
2.756871727278848
 42
0.0
 10
7.895978572134504
 20
2.75496408078561
 42
0.0909017163086478
 10
8.638621564539786
 20
2.883477174477775
 42
0.0447069618130333
 10
9.268799749042873
 20
3.181702338122732
 42
0.1128175077099571
 10
9.964057682434926
 20
3.837304033206223
 42
0.0608211245356331
 10
10.33263235317277
 20
4.565473170722628
 42
0.049331858125417
 10
10.4387650076096
 20
4.983752515422617
 42
0.065690809223681
 10
10.44514081509986
 20
5.324388810016022
 42
0.0263841447688456
 10
10.36109405077513
 20
5.828404162340123
 42
0.111032007735648
 10
10.1488014581446
 20
6.280340163397289
 42
0.0954769237506092
 10
9.743255806701252
 20
6.636112445898077
 42
0.1344743755011468
 10
9.16961061372654
 20
6.790184290998497
 42
0.0371348428652506
 97
        1
330
10AE
 92
        7
 72
     1
 73
     1
 93
       28
 10
17.58950672700666
 20
6.845177801124008
 42
0.0720213337682746
 10
17.30169804254726
 20
6.813521433001468
 42
0.1165259473727642
 10
16.847475434027
 20
6.697329635546531
 42
0.1367219210229774
 10
16.37181407173089
 20
6.492151230066183
 42
0.1159963079754361
 10
15.97160648546418
 20
6.235274116686522
 42
0.1220180728797626
 10
15.51700032501725
 20
5.739764549487998
 42
0.106253829445134
 10
15.30009079042666
 20
5.381929970168965
 42
0.0741143291313658
 10
15.12613969807686
 20
4.966571831815106
 42
0.0963876453394257
 10
15.05530933347827
 20
4.664090488340121
 42
0.1290230491978719
 10
15.04460404333582
 20
4.299349003669798
 42
0.105603282479741
 10
15.13291750571225
 20
3.756183902980616
 42
0.1476450305569834
 10
15.34164132913683
 20
3.316276484942753
 42
0.1703883319154718
 10
15.85516778816352
 20
2.913664647493941
 42
0.0926646384195225
 10
16.17125888482419
 20
2.821681920343083
 42
0.0464248298300036
 10
16.39146127824511
 20
2.788344623063279
 42
-0.0013953091678964
 10
16.91310994826987
 20
2.756871727278848
 42
0.0
 10
17.10475314713394
 20
2.754964080785611
 42
0.0909017163086581
 10
17.84739613953932
 20
2.883477174477771
 42
0.0447069618130324
 10
18.4775743240424
 20
3.181702338122721
 42
0.1128175077099543
 10
19.17283225743444
 20
3.837304033206186
 42
0.060821124535633
 10
19.5414069281723
 20
4.565473170722582
 42
0.0493318581254303
 10
19.64753958260917
 20
4.983752515422683
 42
0.0656908092236803
 10
19.65391539009941
 20
5.324388810016086
 42
0.0263841447688458
 10
19.56986862577465
 20
5.82840416234019
 42
0.1110320077356975
 10
19.35757603314399
 20
6.280340163397521
 42
0.0954769237505732
 10
18.95203038170071
 20
6.636112445898126
 42
0.1344743755011265
 10
18.37838518872608
 20
6.790184290998494
 42
0.0371348428652655
 10
18.13828408927881
 20
6.826378262091781
 42
0.0
 97
        1
330
1076
 92
        7
 72
     1
 73
     1
 93
       28
 10
23.73198948433097
 20
6.418238011866861
 42
0.0212082386421123
 10
23.25853206700823
 20
6.030284347354512
 42
0.0938951660773736
 10
22.9417816323548
 20
5.617644580484876
 42
-0.0148163220530615
 10
22.66641513409048
 20
5.071627056637761
 42
0.1178533943594639
 10
22.55564841828893
 20
4.275551539981963
 42
0.0111010348703354
 10
22.60591397647293
 20
3.913120245550091
 42
0.3074685942339956
 10
23.62761305179446
 20
2.830815181530847
 42
0.0679673487927148
 10
24.27393190388745
 20
2.777775874599694
 42
0.0690893662206047
 10
24.71334254947942
 20
2.758718630040673
 42
0.0238746450857962
 10
25.13847320260174
 20
2.81965106618008
 42
0.0701566284934744
 10
25.68065043857123
 20
3.005469799674719
 42
0.0495814918568675
 10
26.2867238439321
 20
3.393385149339323
 42
0.0462823745155245
 10
26.49530460864842
 20
3.591999382778319
 42
0.0362318290103516
 10
26.79875017868107
 20
3.995384102500792
 42
0.0
 10
25.31538103253842
 20
3.995384102500792
 42
-1.056061266083194
 10
24.05825849938347
 20
4.604515712186199
 42
0.0
 10
27.07420627331157
 20
4.592730852502424
 42
0.0
 10
27.16429117019253
 20
4.938280239799673
 42
0.0
 10
27.17290096203942
 20
5.374867254323365
 42
0.0
 10
27.09703624055692
 20
5.813456054558613
 42
0.0
 10
26.98104504532603
 20
6.119509192817523
 42
0.0
 10
26.79193036423385
 20
6.387530141918428
 42
0.0
 10
26.53784906504006
 20
6.599152495594355
 42
0.0
 10
26.29231378551777
 20
6.717169323488629
 42
0.0
 10
25.82574482822383
 20
6.810859709423311
 42
0.0
 10
25.3064966574311
 20
6.842571996870901
 42
0.0
 10
24.91947636116309
 20
6.83325261369191
 42
0.0
 10
24.53882981482092
 20
6.767081222195883
 42
0.1185336637775605
 97
        1
330
105E
 92
       22
 72
     1
 73
     1
 93
        3
 10
25.17969501981559
 20
5.880681483681486
 42
-0.0150513236157648
 10
25.21174095695934
 20
5.868030647140273
 42
0.0277218543765055
 10
25.15875686798617
 20
5.890719326794116
 42
0.0014229196267329
 97
        1
330
10DB
 92
        7
 72
     1
 73
     1
 93
       14
 10
29.24152963830687
 20
5.247478422456013
 42
0.0
 10
29.51423052692688
 20
5.553857743348311
 42
0.0
 10
29.83761542994327
 20
5.739803243303798
 42
0.0
 10
30.35211778917345
 20
5.849523530983177
 42
0.0
 10
30.82894199145084
 20
5.690959907085927
 42
0.0
 10
31.07371167992095
 20
6.842510753382157
 42
0.0
 10
30.41723904968894
 20
6.842510753382157
 42
0.3208544547577054
 10
29.43409524283513
 20
6.139216133215767
 42
-0.9410410240903058
 10
29.35990091575149
 20
6.159602622388797
 42
-0.0010084457583671
 10
29.50505750336015
 20
6.842510675000085
 42
0.0
 10
27.98817779227101
 20
6.842510675000083
 42
0.0
 10
27.11986702075956
 20
2.757429675000819
 42
0.0
 10
28.63674673184141
 20
2.757429675000819
 42
0.0
 10
29.08227159248053
 20
4.853459348907549
 42
0.0
 97
        1
330
1046
 92
        7
 72
     1
 73
     1
 93
       19
 10
22.53045817302871
 20
7.942476402735554
 42
-0.3541185725320812
 10
22.87349487896036
 20
8.220262050000201
 42
0.0
 10
23.82082786932004
 20
8.220262050000199
 42
0.0
 10
24.11408754498916
 20
9.599940349999997
 42
0.0
 10
22.76711630181961
 20
9.599940349999997
 42
0.3541185725309663
 10
21.07455057695927
 20
8.22932765087361
 42
0.0
 10
20.75853978639134
 20
6.742613770640672
 42
0.0
 10
20.06707903497953
 20
6.742613770640672
 42
0.0
 10
19.88440610851101
 20
5.883205220642593
 42
0.0
 10
20.5758668599301
 20
5.883205220642593
 42
0.0
 10
19.32634691002021
 20
0.0046760419127164
 42
0.0
 10
20.03286143203101
 20
0.1828239056492011
 42
0.0
 10
20.56434411707813
 20
0.5331554805062502
 42
0.0
 10
20.96440513938764
 20
1.034014901046734
 42
0.0
 10
21.18612210312689
 20
1.617872451081328
 42
0.0
 10
22.09274657101923
 20
5.883205220642594
 42
0.0
 10
22.78420732243103
 20
5.883205220642594
 42
0.0
 10
22.96688024888863
 20
6.742613770640672
 42
0.0
 10
22.27541949748047
 20
6.742613770640672
 42
0.0
 97
        1
330
105F
 92
        7
 72
     0
 73
     1
 93
        4
 10
38.98897033421961
 20
8.220262050000201
 10
39.28223000988145
 20
9.599940349999997
 10
24.64440292789003
 20
9.599940349999997
 10
24.35114325222093
 20
8.220262050000201
 97
        1
330
1058
 92
        7
 72
     1
 73
     1
 93
       29
 10
30.65770132076067
 20
2.757429675000819
 42
0.0
 10
32.1745810318389
 20
2.757429675000819
 42
0.0
 10
32.76507681714065
 20
5.535493926003253
 42
-1.0
 10
34.01819507524778
 20
5.269135417690629
 42
0.0
 10
33.48431553864064
 20
2.75742967500082
 42
0.0
 10
35.00119524972978
 20
2.75742967500082
 42
0.0
 10
35.59169103502063
 20
5.535493926000527
 42
-1.0
 10
36.8448092931106
 20
5.269135417695522
 42
0.0
 10
36.31092975652063
 20
2.757429675000819
 42
0.0
 10
37.82780946760974
 20
2.757429675000819
 42
0.0
 10
38.36769004363667
 20
5.299483612262528
 42
0.2047955992915608
 10
38.1629046657836
 20
6.337769622802587
 42
0.1958133278693918
 10
37.49228911838875
 20
6.782256092353227
 42
0.061363227733517
 10
36.66997497299584
 20
6.84488690442503
 42
0.0365075138801118
 10
36.21980659389373
 20
6.790816867349349
 42
0.175685765698743
 10
35.77880544592892
 20
6.526262287269884
 42
0.0868233489030502
 10
35.41867960497084
 20
6.200708390169524
 42
0.2350897652894949
 10
35.19108699212539
 20
6.439901237037344
 42
0.2096241240022876
 10
34.82813759994332
 20
6.713425234751633
 42
0.1472482736348591
 10
34.6389761802955
 20
6.785766546540695
 42
0.0027608643436532
 10
34.62331791215443
 20
6.7905041143942
 42
-0.0219536388018533
 10
34.58932261049267
 20
6.800145592720582
 42
0.0259676370680076
 10
34.4390148704936
 20
6.832576277316643
 42
-0.0112473767228918
 10
34.31089211913743
 20
6.845387794245781
 42
0.0397014801065045
 10
33.7999935224253
 20
6.861599607887754
 42
0.2653302331760003
 10
32.99581016541812
 20
6.247828757685454
 42
-0.8922244520385062
 10
32.92008244706117
 20
6.264738079698539
 42
-0.0518180266859039
 10
33.04289180335035
 20
6.842510675000085
 42
0.0
 10
31.52601209226121
 20
6.842510675000083
 42
0.0
 97
        1
330
10DD
 92
        7
 72
     0
 73
     1
 93
        4
 10
0.2932596756509156
 20
1.379678300000705
 10
0.0
 20
0.0
 10
18.79477866470915
 20
0.0
 10
19.08803834036006
 20
1.379678300000705
 97
        1
330
1040
 92
        7
 72
     0
 73
     1
 93
        7
 10
15.62139996335099
 20
6.842510675000085
 10
13.90813353547128
 20
6.842510675000085
 10
12.61128751330033
 20
4.596307475006141
 10
12.33548843967946
 20
6.842510675000085
 10
10.84061361946076
 20
6.842510675000083
 10
11.3421984962988
 20
2.757429675000819
 10
13.26287734834113
 20
2.757429675000819
 97
        1
330
10A3
 92
        7
 72
     1
 73
     1
 93
       14
 10
3.412723988640208
 20
2.757429675000819
 42
0.0
 10
4.92960369972934
 20
2.757429675000819
 42
0.0
 10
5.474210093147121
 20
5.326854939932677
 42
0.3980284282371206
 10
4.584057813339938
 20
6.78282481516445
 42
0.0897846318855604
 10
4.053254660385851
 20
6.828239308706159
 42
0.1950036359286047
 10
3.237382584805621
 20
6.663433920619293
 42
0.1712189102473227
 10
2.921132992945188
 20
6.244963477414771
 42
-0.9586391923216815
 10
2.848490897065828
 20
6.264738079699775
 42
0.0
 10
2.971300253349907
 20
6.842510675000085
 42
0.0
 10
1.454420542260775
 20
6.842510675000083
 42
0.0
 10
0.5861097707602312
 20
2.757429675000819
 42
0.0
 10
2.102989481849363
 20
2.75742967500082
 42
0.0
 10
2.693485267140204
 20
5.53549392600325
 42
-1.0
 10
3.946603525240008
 20
5.269135417690455
 42
0.0
 97
        1
330
102E
 75
     0
 76
     1
 47
0.0591379636446681
 98
       11
 10
9.242541326568499
 20
6.180998970363674
 10
17.64341890426057
 20
6.121860786647942
 10
17.64341890426057
 20
6.121860786647942
 10
24.15114036452578
 20
6.180998970363674
 10
28.76570692128634
 20
5.589618985471105
 10
21.84385708614561
 20
7.600309822746877
 10
27.10919584962871
 20
8.84220705011532
 10
31.90124573549534
 20
5.885308977917445
 10
16.1052300520071
 20
0.7403059803627629
 10
13.67962455422278
 20
3.992894045006977
 10
4.273008111595601
 20
3.81547995692594
  0
POLYLINE
  5
102E
102
{ACAD_REACTORS
330
102D
102
}
330
102C
100
AcDbEntity
  8
AM_BOR
 62
     5
100
AcDb2dPolyline
 66
     1
 10
0.0
 20
0.0
 30
0.0
  0
VERTEX
  5
102F
330
102E
100
AcDbEntity
  8
AM_BOR
 62
     5
100
AcDbVertex
100
AcDb2dVertex
 10
0.5861097707602312
 20
2.757429675000819
 30
0.0
  0
VERTEX
  5
1030
330
102E
100
AcDbEntity
  8
AM_BOR
 62
     5
100
AcDbVertex
100
AcDb2dVertex
 10
2.102989481849363
 20
2.757429675000819
 30
0.0
  0
VERTEX
  5
1031
330
102E
100
AcDbEntity
  8
AM_BOR
 62
     5
100
AcDbVertex
100
AcDb2dVertex
 10
2.693485267140204
 20
5.535493926003253
 30
0.0
 42
-1.000000000005512
  0
VERTEX
  5
1032
330
102E
100
AcDbEntity
  8
AM_BOR
 62
     5
100
AcDbVertex
100
AcDb2dVertex
 10
3.946603525239651
 20
5.269135417688771
 30
0.0
  0
VERTEX
  5
1033
330
102E
100
AcDbEntity
  8
AM_BOR
 62
     5
100
AcDbVertex
100
AcDb2dVertex
 10
3.412723988640208
 20
2.757429675000819
 30
0.0
  0
VERTEX
  5
1034
330
102E
100
AcDbEntity
  8
AM_BOR
 62
     5
100
AcDbVertex
100
AcDb2dVertex
 10
4.92960369972934
 20
2.757429675000819
 30
0.0
  0
VERTEX
  5
1035
330
102E
100
AcDbEntity
  8
AM_BOR
 62
     5
100
AcDbVertex
100
AcDb2dVertex
 10
5.474210093147121
 20
5.326854939932673
 30
0.0
 42
0.3980284282370943
  0
VERTEX
  5
1036
330
102E
100
AcDbEntity
  8
AM_BOR
 62
     5
100
AcDbVertex
100
AcDb2dVertex
 10
4.58405781334005
 20
6.782824815164418
 30
0.0
 42
0.060314349801188
  0
VERTEX
  5
1037
330
102E
100
AcDbEntity
  8
AM_BOR
 62
     5
100
AcDbVertex
100
AcDb2dVertex
 10
4.228319907572283
 20
6.834392325016012
 30
0.0
 42
-0.0060899244628172
  0
VERTEX
  5
1038
330
102E
100
AcDbEntity
  8
AM_BOR
 62
     5
100
AcDbVertex
100
AcDb2dVertex
 10
3.901532635634936
 20
6.846048372153459
 30
0.0
 42
0.1594110237906524
  0
VERTEX
  5
1039
330
102E
100
AcDbEntity
  8
AM_BOR
 62
     5
100
AcDbVertex
100
AcDb2dVertex
 10
3.237382584805601
 20
6.663433920619282
 30
0.0
 42
0.1712189102473157
  0
VERTEX
  5
103A
330
102E
100
AcDbEntity
  8
AM_BOR
 62
     5
100
AcDbVertex
100
AcDb2dVertex
 10
2.921132992945188
 20
6.244963477414771
 30
0.0
 42
-0.9586391923214458
  0
VERTEX
  5
103B
330
102E
100
AcDbEntity
  8
AM_BOR
 62
     5
100
AcDbVertex
100
AcDb2dVertex
 10
2.848490897065827
 20
6.264738079699768
 30
0.0
  0
VERTEX
  5
103C
330
102E
100
AcDbEntity
  8
AM_BOR
 62
     5
100
AcDbVertex
100
AcDb2dVertex
 10
2.971300253349907
 20
6.842510675000085
 30
0.0
  0
VERTEX
  5
103D
330
102E
100
AcDbEntity
  8
AM_BOR
 62
     5
100
AcDbVertex
100
AcDb2dVertex
 10
1.454420542260775
 20
6.842510675000085
 30
0.0
  0
VERTEX
  5
103E
330
102E
100
AcDbEntity
  8
AM_BOR
 62
     5
100
AcDbVertex
100
AcDb2dVertex
 10
0.5861097707602312
 20
2.757429675000819
 30
0.0
  0
SEQEND
  5
103F
330
102E
100
AcDbEntity
  8
AM_BOR
 62
     5
  0
POLYLINE
  5
1040
102
{ACAD_REACTORS
330
102D
102
}
330
102C
100
AcDbEntity
  8
AM_BOR
 62
     5
100
AcDb2dPolyline
 66
     1
 10
0.0
 20
0.0
 30
0.0
 70
     1
  0
VERTEX
  5
1041
330
1040
100
AcDbEntity
  8
AM_BOR
 62
     5
100
AcDbVertex
100
AcDb2dVertex
 10
0.0
 20
0.0
 30
0.0
  0
VERTEX
  5
1042
330
1040
100
AcDbEntity
  8
AM_BOR
 62
     5
100
AcDbVertex
100
AcDb2dVertex
 10
18.79477866470915
 20
0.0
 30
0.0
  0
VERTEX
  5
1043
330
1040
100
AcDbEntity
  8
AM_BOR
 62
     5
100
AcDbVertex
100
AcDb2dVertex
 10
19.08803834036006
 20
1.379678300000705
 30
0.0
  0
VERTEX
  5
1044
330
1040
100
AcDbEntity
  8
AM_BOR
 62
     5
100
AcDbVertex
100
AcDb2dVertex
 10
0.2932596756509156
 20
1.379678300000705
 30
0.0
  0
SEQEND
  5
1045
330
1040
100
AcDbEntity
  8
AM_BOR
 62
     5
  0
POLYLINE
  5
1046
102
{ACAD_REACTORS
330
102D
102
}
330
102C
100
AcDbEntity
  8
AM_BOR
 62
     5
100
AcDb2dPolyline
 66
     1
 10
0.0
 20
0.0
 30
0.0
  0
VERTEX
  5
1047
330
1046
100
AcDbEntity
  8
AM_BOR
 62
     5
100
AcDbVertex
100
AcDb2dVertex
 10
29.50505750336015
 20
6.842510675000085
 30
0.0
  0
VERTEX
  5
1048
330
1046
100
AcDbEntity
  8
AM_BOR
 62
     5
100
AcDbVertex
100
AcDb2dVertex
 10
27.98817779227102
 20
6.842510675000085
 30
0.0
  0
VERTEX
  5
1049
330
1046
100
AcDbEntity
  8
AM_BOR
 62
     5
100
AcDbVertex
100
AcDb2dVertex
 10
27.11986702075956
 20
2.757429675000819
 30
0.0
  0
VERTEX
  5
104A
330
1046
100
AcDbEntity
  8
AM_BOR
 62
     5
100
AcDbVertex
100
AcDb2dVertex
 10
28.63674673184141
 20
2.757429675000819
 30
0.0
  0
VERTEX
  5
104B
330
1046
100
AcDbEntity
  8
AM_BOR
 62
     5
100
AcDbVertex
100
AcDb2dVertex
 10
29.08227159248053
 20
4.853459348907563
 30
0.0
  0
VERTEX
  5
104C
330
1046
100
AcDbEntity
  8
AM_BOR
 62
     5
100
AcDbVertex
100
AcDb2dVertex
 10
29.24152963830687
 20
5.247478422456011
 30
0.0
  0
VERTEX
  5
104D
330
1046
100
AcDbEntity
  8
AM_BOR
 62
     5
100
AcDbVertex
100
AcDb2dVertex
 10
29.51423052692689
 20
5.553857743348316
 30
0.0
  0
VERTEX
  5
104E
330
1046
100
AcDbEntity
  8
AM_BOR
 62
     5
100
AcDbVertex
100
AcDb2dVertex
 10
29.83761542994327
 20
5.739803243303795
 30
0.0
  0
VERTEX
  5
104F
330
1046
100
AcDbEntity
  8
AM_BOR
 62
     5
100
AcDbVertex
100
AcDb2dVertex
 10
30.21531620530672
 20
5.820349886066734
 30
0.0
  0
VERTEX
  5
1050
330
1046
100
AcDbEntity
  8
AM_BOR
 62
     5
100
AcDbVertex
100
AcDb2dVertex
 10
30.49107585770396
 20
5.803314268091892
 30
0.0
  0
VERTEX
  5
1051
330
1046
100
AcDbEntity
  8
AM_BOR
 62
     5
100
AcDbVertex
100
AcDb2dVertex
 10
30.82894199145084
 20
5.690959907085924
 30
0.0
  0
VERTEX
  5
1052
330
1046
100
AcDbEntity
  8
AM_BOR
 62
     5
100
AcDbVertex
100
AcDb2dVertex
 10
31.07371167992095
 20
6.842510753382157
 30
0.0
  0
VERTEX
  5
1053
330
1046
100
AcDbEntity
  8
AM_BOR
 62
     5
100
AcDbVertex
100
AcDb2dVertex
 10
30.41723904968895
 20
6.842510753382157
 30
0.0
 42
0.3208544547577054
  0
VERTEX
  5
1054
330
1046
100
AcDbEntity
  8
AM_BOR
 62
     5
100
AcDbVertex
100
AcDb2dVertex
 10
29.43409524283513
 20
6.139216133215767
 30
0.0
 42
-0.9410410240924264
  0
VERTEX
  5
1055
330
1046
100
AcDbEntity
  8
AM_BOR
 62
     5
100
AcDbVertex
100
AcDb2dVertex
 10
29.35990091575149
 20
6.159602622388772
 30
0.0
 42
-0.0010084457583671
  0
VERTEX
  5
1056
330
1046
100
AcDbEntity
  8
AM_BOR
 62
     5
100
AcDbVertex
100
AcDb2dVertex
 10
29.50505750336015
 20
6.842510675000085
 30
0.0
 42
3.228683782114542
  0
SEQEND
  5
1057
330
1046
100
AcDbEntity
  8
AM_BOR
 62
     5
  0
POLYLINE
  5
1058
102
{ACAD_REACTORS
330
102D
102
}
330
102C
100
AcDbEntity
  8
AM_BOR
 62
     5
100
AcDb2dPolyline
 66
     1
 10
0.0
 20
0.0
 30
0.0
 70
     1
  0
VERTEX
  5
1059
330
1058
100
AcDbEntity
  8
AM_BOR
 62
     5
100
AcDbVertex
100
AcDb2dVertex
 10
24.35114325222093
 20
8.220262050000201
 30
0.0
  0
VERTEX
  5
105A
330
1058
100
AcDbEntity
  8
AM_BOR
 62
     5
100
AcDbVertex
100
AcDb2dVertex
 10
38.98897033421963
 20
8.220262050000201
 30
0.0
  0
VERTEX
  5
105B
330
1058
100
AcDbEntity
  8
AM_BOR
 62
     5
100
AcDbVertex
100
AcDb2dVertex
 10
39.28223000988145
 20
9.599940349999997
 30
0.0
  0
VERTEX
  5
105C
330
1058
100
AcDbEntity
  8
AM_BOR
 62
     5
100
AcDbVertex
100
AcDb2dVertex
 10
24.64440292789003
 20
9.599940349999997
 30
0.0
  0
SEQEND
  5
105D
330
1058
100
AcDbEntity
  8
AM_BOR
 62
     5
  0
LWPOLYLINE
  5
105E
102
{ACAD_REACTORS
330
102D
102
}
330
102C
100
AcDbEntity
  8
AM_BOR
 62
     5
100
AcDbPolyline
 90
       30
 70
     0
 43
0.0
 10
26.79875017868107
 20
3.995384102500792
 10
25.31538103253842
 20
3.995384102500792
 42
-1.056061266083238
 10
24.05825849938347
 20
4.604515712186199
 10
27.07420627331157
 20
4.592730852502425
 10
27.16429117019254
 20
4.938280239799695
 10
27.17290096203942
 20
5.374867254323362
 10
27.09703624055691
 20
5.813456054558627
 10
26.98104504532603
 20
6.119509192817531
 10
26.79193036423384
 20
6.387530141918432
 10
26.53784906504006
 20
6.599152495594352
 10
26.29231378551776
 20
6.717169323488632
 10
25.82574482822383
 20
6.810859709423311
 10
25.30649665743112
 20
6.842571996870901
 10
24.9194763611631
 20
6.833252613691911
 10
24.53882981482093
 20
6.767081222195884
 42
0.1185336637775554
 10
23.73198948433102
 20
6.41823801186689
 42
0.0212082386421142
 10
23.25853206700823
 20
6.030284347354507
 42
0.0938951660773635
 10
22.94178163235482
 20
5.617644580484918
 42
-0.0148163220530626
 10
22.66641513409048
 20
5.071627056637763
 42
0.1178533943594312
 10
22.5556484182889
 20
4.275551539982187
 42
0.0111010348703423
 10
22.60591397647293
 20
3.913120245550087
 42
0.3074685942339919
 10
23.62761305179446
 20
2.830815181530851
 42
0.0493558172732279
 10
24.09621738080022
 20
2.774798630924124
 42
-0.0162188932369519
 10
24.4261677366303
 20
2.757368353094534
 42
0.0449876900293778
 10
24.71334254947942
 20
2.758718630040673
 42
0.0238746450857966
 10
25.13847320260174
 20
2.819651066180083
 42
0.0701566284934849
 10
25.68065043857131
 20
3.005469799674756
 42
0.0495814918568625
 10
26.28672384393212
 20
3.393385149339336
 42
0.0462823745155266
 10
26.49530460864844
 20
3.59199938277834
 42
0.0362318290103496
 10
26.79875017868107
 20
3.995384102500792
 42
4.246376733643733
  0
POLYLINE
  5
105F
102
{ACAD_REACTORS
330
102D
102
}
330
102C
100
AcDbEntity
  8
AM_BOR
 62
     5
100
AcDb2dPolyline
 66
     1
 10
0.0
 20
0.0
 30
0.0
  0
VERTEX
  5
1060
330
105F
100
AcDbEntity
  8
AM_BOR
 62
     5
100
AcDbVertex
100
AcDb2dVertex
 10
21.1861221031269
 20
1.617872451081339
 30
0.0
  0
VERTEX
  5
1061
330
105F
100
AcDbEntity
  8
AM_BOR
 62
     5
100
AcDbVertex
100
AcDb2dVertex
 10
22.09274657101923
 20
5.883205220642594
 30
0.0
  0
VERTEX
  5
1062
330
105F
100
AcDbEntity
  8
AM_BOR
 62
     5
100
AcDbVertex
100
AcDb2dVertex
 10
22.78420732243103
 20
5.883205220642594
 30
0.0
  0
VERTEX
  5
1063
330
105F
100
AcDbEntity
  8
AM_BOR
 62
     5
100
AcDbVertex
100
AcDb2dVertex
 10
22.96688024888863
 20
6.742613770640672
 30
0.0
  0
VERTEX
  5
1064
330
105F
100
AcDbEntity
  8
AM_BOR
 62
     5
100
AcDbVertex
100
AcDb2dVertex
 10
22.27541949748047
 20
6.742613770640672
 30
0.0
  0
VERTEX
  5
1065
330
105F
100
AcDbEntity
  8
AM_BOR
 62
     5
100
AcDbVertex
100
AcDb2dVertex
 10
22.53045817302873
 20
7.942476402735562
 30
0.0
 42
-0.3541185725322806
  0
VERTEX
  5
1066
330
105F
100
AcDbEntity
  8
AM_BOR
 62
     5
100
AcDbVertex
100
AcDb2dVertex
 10
22.87349487896062
 20
8.220262050000201
 30
0.0
  0
VERTEX
  5
1067
330
105F
100
AcDbEntity
  8
AM_BOR
 62
     5
100
AcDbVertex
100
AcDb2dVertex
 10
23.82082786932004
 20
8.220262050000201
 30
0.0
  0
VERTEX
  5
1068
330
105F
100
AcDbEntity
  8
AM_BOR
 62
     5
100
AcDbVertex
100
AcDb2dVertex
 10
24.11408754498916
 20
9.599940349999997
 30
0.0
  0
VERTEX
  5
1069
330
105F
100
AcDbEntity
  8
AM_BOR
 62
     5
100
AcDbVertex
100
AcDb2dVertex
 10
22.76711630181964
 20
9.599940349999997
 30
0.0
 42
0.3541185725305523
  0
VERTEX
  5
106A
330
105F
100
AcDbEntity
  8
AM_BOR
 62
     5
100
AcDbVertex
100
AcDb2dVertex
 10
21.0745505769598
 20
8.229327650876115
 30
0.0
  0
VERTEX
  5
106B
330
105F
100
AcDbEntity
  8
AM_BOR
 62
     5
100
AcDbVertex
100
AcDb2dVertex
 10
20.75853978639134
 20
6.742613770640672
 30
0.0
  0
VERTEX
  5
106C
330
105F
100
AcDbEntity
  8
AM_BOR
 62
     5
100
AcDbVertex
100
AcDb2dVertex
 10
20.06707903497953
 20
6.742613770640672
 30
0.0
  0
VERTEX
  5
106D
330
105F
100
AcDbEntity
  8
AM_BOR
 62
     5
100
AcDbVertex
100
AcDb2dVertex
 10
19.88440610851101
 20
5.883205220642594
 30
0.0
  0
VERTEX
  5
106E
330
105F
100
AcDbEntity
  8
AM_BOR
 62
     5
100
AcDbVertex
100
AcDb2dVertex
 10
20.5758668599301
 20
5.883205220642594
 30
0.0
  0
VERTEX
  5
106F
330
105F
100
AcDbEntity
  8
AM_BOR
 62
     5
100
AcDbVertex
100
AcDb2dVertex
 10
19.32634691002021
 20
0.0046760419127168
 30
0.0
  0
VERTEX
  5
1070
330
105F
100
AcDbEntity
  8
AM_BOR
 62
     5
100
AcDbVertex
100
AcDb2dVertex
 10
20.03286143203101
 20
0.1828239056492009
 30
0.0
  0
VERTEX
  5
1071
330
105F
100
AcDbEntity
  8
AM_BOR
 62
     5
100
AcDbVertex
100
AcDb2dVertex
 10
20.56434411707815
 20
0.5331554805062524
 30
0.0
  0
VERTEX
  5
1072
330
105F
100
AcDbEntity
  8
AM_BOR
 62
     5
100
AcDbVertex
100
AcDb2dVertex
 10
20.96440513938764
 20
1.034014901046729
 30
0.0
  0
VERTEX
  5
1073
330
105F
100
AcDbEntity
  8
AM_BOR
 62
     5
100
AcDbVertex
100
AcDb2dVertex
 10
21.1861221031269
 20
1.617872451081339
 30
0.0
  0
SEQEND
  5
1074
330
105F
100
AcDbEntity
  8
AM_BOR
 62
     5
  0
REGION
  5
1075
102
{ACAD_REACTORS
330
102D
102
}
330
102C
100
AcDbEntity
  8
AM_BOR
 62
     5
100
AcDbModelerGeometry
 70
     1
  1
koo o o o           
  1
h J1410(1 nl ^ \VL kqoqm QK mk K7* R>- nj nnekkejn mooh 
  1
rn fqfffffffffffffffj:rooh n:rono 
  0
POLYLINE
  5
1076
102
{ACAD_REACTORS
330
102D
102
}
330
102C
100
AcDbEntity
  8
AM_BOR
 62
     5
100
AcDb2dPolyline
 66
     1
 10
0.0
 20
0.0
 30
0.0
  0
VERTEX
  5
1077
330
1076
100
AcDbEntity
  8
AM_BOR
 62
     5
100
AcDbVertex
100
AcDb2dVertex
 10
16.91310994826926
 20
2.756871727278848
 30
0.0
  0
VERTEX
  5
1078
330
1076
100
AcDbEntity
  8
AM_BOR
 62
     5
100
AcDbVertex
100
AcDb2dVertex
 10
17.10475314713403
 20
2.75496408078561
 30
0.0
 42
0.0909017163086509
  0
VERTEX
  5
1079
330
1076
100
AcDbEntity
  8
AM_BOR
 62
     5
100
AcDbVertex
100
AcDb2dVertex
 10
17.84739613953932
 20
2.883477174477775
 30
0.0
 42
0.0447069618130351
  0
VERTEX
  5
107A
330
1076
100
AcDbEntity
  8
AM_BOR
 62
     5
100
AcDbVertex
100
AcDb2dVertex
 10
18.47757432404245
 20
3.181702338122747
 30
0.0
 42
0.1128175077099557
  0
VERTEX
  5
107B
330
1076
100
AcDbEntity
  8
AM_BOR
 62
     5
100
AcDbVertex
100
AcDb2dVertex
 10
19.17283225743448
 20
3.837304033206237
 30
0.0
 42
0.0608211245356395
  0
VERTEX
  5
107C
330
1076
100
AcDbEntity
  8
AM_BOR
 62
     5
100
AcDbVertex
100
AcDb2dVertex
 10
19.54140692817236
 20
4.565473170722723
 30
0.0
 42
0.0493318581253993
  0
VERTEX
  5
107D
330
1076
100
AcDbEntity
  8
AM_BOR
 62
     5
100
AcDbVertex
100
AcDb2dVertex
 10
19.64753958260915
 20
4.983752515422565
 30
0.0
 42
0.0656908092236847
  0
VERTEX
  5
107E
330
1076
100
AcDbEntity
  8
AM_BOR
 62
     5
100
AcDbVertex
100
AcDb2dVertex
 10
19.65391539009942
 20
5.324388810015988
 30
0.0
 42
0.0263841447688464
  0
VERTEX
  5
107F
330
1076
100
AcDbEntity
  8
AM_BOR
 62
     5
100
AcDbVertex
100
AcDb2dVertex
 10
19.56986862577467
 20
5.828404162340106
 30
0.0
 42
0.1110320077356657
  0
VERTEX
  5
1080
330
1076
100
AcDbEntity
  8
AM_BOR
 62
     5
100
AcDbVertex
100
AcDb2dVertex
 10
19.35757603314414
 20
6.280340163397338
 30
0.0
 42
0.0954769237506086
  0
VERTEX
  5
1081
330
1076
100
AcDbEntity
  8
AM_BOR
 62
     5
100
AcDbVertex
100
AcDb2dVertex
 10
18.95203038170073
 20
6.636112445898104
 30
0.0
 42
0.104519800845784
  0
VERTEX
  5
1082
330
1076
100
AcDbEntity
  8
AM_BOR
 62
     5
100
AcDbVertex
100
AcDb2dVertex
 10
18.51091057196754
 20
6.783006586648297
 30
0.0
 42
-0.0034833120879635
  0
VERTEX
  5
1083
330
1076
100
AcDbEntity
  8
AM_BOR
 62
     5
100
AcDbVertex
100
AcDb2dVertex
 10
18.22250370454639
 20
6.817822382489794
 30
0.0
 42
0.0335120487588771
  0
VERTEX
  5
1084
330
1076
100
AcDbEntity
  8
AM_BOR
 62
     5
100
AcDbVertex
100
AcDb2dVertex
 10
18.00371804309178
 20
6.830988109019926
 30
0.0
  0
VERTEX
  5
1085
330
1076
100
AcDbEntity
  8
AM_BOR
 62
     5
100
AcDbVertex
100
AcDb2dVertex
 10
17.58950672700666
 20
6.845177801124007
 30
0.0
 42
0.0479928409144531
  0
VERTEX
  5
1086
330
1076
100
AcDbEntity
  8
AM_BOR
 62
     5
100
AcDbVertex
100
AcDb2dVertex
 10
17.39637577627944
 20
6.833252613701914
 30
0.0
 42
-0.010976987352034
  0
VERTEX
  5
1087
330
1076
100
AcDbEntity
  8
AM_BOR
 62
     5
100
AcDbVertex
100
AcDb2dVertex
 10
17.2048382630346
 20
6.807114424193057
 30
0.0
 42
0.0475054927706009
  0
VERTEX
  5
1088
330
1076
100
AcDbEntity
  8
AM_BOR
 62
     5
100
AcDbVertex
100
AcDb2dVertex
 10
17.01572922984996
 20
6.767081222201341
 30
0.0
 42
0.00389769197541
  0
VERTEX
  5
1089
330
1076
100
AcDbEntity
  8
AM_BOR
 62
     5
100
AcDbVertex
100
AcDb2dVertex
 10
16.67505446902577
 20
6.657446850374071
 30
0.0
 42
0.0453174944271857
  0
VERTEX
  5
108A
330
1076
100
AcDbEntity
  8
AM_BOR
 62
     5
100
AcDbVertex
100
AcDb2dVertex
 10
16.51494674327476
 20
6.587912866070838
 30
0.0
 42
0.002957919191788
  0
VERTEX
  5
108B
330
1076
100
AcDbEntity
  8
AM_BOR
 62
     5
100
AcDbVertex
100
AcDb2dVertex
 10
16.20888889935304
 20
6.418238011880927
 30
0.0
 42
0.0476208228899992
  0
VERTEX
  5
108C
330
1076
100
AcDbEntity
  8
AM_BOR
 62
     5
100
AcDbVertex
100
AcDb2dVertex
 10
16.04677478966914
 20
6.305585722194335
 30
0.0
 42
-0.0083493205578895
  0
VERTEX
  5
108D
330
1076
100
AcDbEntity
  8
AM_BOR
 62
     5
100
AcDbVertex
100
AcDb2dVertex
 10
15.87713205914931
 20
6.166777615834321
 30
0.0
 42
0.0665790239931206
  0
VERTEX
  5
108E
330
1076
100
AcDbEntity
  8
AM_BOR
 62
     5
100
AcDbVertex
100
AcDb2dVertex
 10
15.61937166788991
 20
5.900299122363321
 30
0.0
 42
0.00919430990576
  0
VERTEX
  5
108F
330
1076
100
AcDbEntity
  8
AM_BOR
 62
     5
100
AcDbVertex
100
AcDb2dVertex
 10
15.41868104735476
 20
5.617644580484918
 30
0.0
 42
0.0437329637914695
  0
VERTEX
  5
1090
330
1076
100
AcDbEntity
  8
AM_BOR
 62
     5
100
AcDbVertex
100
AcDb2dVertex
 10
15.33357087281182
 20
5.466065271100887
 30
0.0
 42
-0.0126523869623815
  0
VERTEX
  5
1091
330
1076
100
AcDbEntity
  8
AM_BOR
 62
     5
100
AcDbVertex
100
AcDb2dVertex
 10
15.24812732341398
 20
5.288964253182371
 30
0.0
 42
0.0450352780064447
  0
VERTEX
  5
1092
330
1076
100
AcDbEntity
  8
AM_BOR
 62
     5
100
AcDbVertex
100
AcDb2dVertex
 10
15.14505629520511
 20
5.034467179246076
 30
0.0
 42
-0.0142812660732206
  0
VERTEX
  5
1093
330
1076
100
AcDbEntity
  8
AM_BOR
 62
     5
100
AcDbVertex
100
AcDb2dVertex
 10
15.10456925441758
 20
4.913654207271973
 30
0.0
 42
0.0444410527900133
  0
VERTEX
  5
1094
330
1076
100
AcDbEntity
  8
AM_BOR
 62
     5
100
AcDbVertex
100
AcDb2dVertex
 10
15.06704558970338
 20
4.774336849354681
 30
0.0
 42
0.0080679739844816
  0
VERTEX
  5
1095
330
1076
100
AcDbEntity
  8
AM_BOR
 62
     5
100
AcDbVertex
100
AcDb2dVertex
 10
15.03335226531635
 20
4.563051502226699
 30
0.0
 42
0.049913190906255
  0
VERTEX
  5
1096
330
1076
100
AcDbEntity
  8
AM_BOR
 62
     5
100
AcDbVertex
100
AcDb2dVertex
 10
15.02730463005718
 20
4.420023249034784
 30
0.0
 42
0.0054269149591697
  0
VERTEX
  5
1097
330
1076
100
AcDbEntity
  8
AM_BOR
 62
     5
100
AcDbVertex
100
AcDb2dVertex
 10
15.04713557257855
 20
4.130293251455441
 30
0.0
 42
0.0418419209559064
  0
VERTEX
  5
1098
330
1076
100
AcDbEntity
  8
AM_BOR
 62
     5
100
AcDbVertex
100
AcDb2dVertex
 10
15.08281339146559
 20
3.913120245550087
 30
0.0
 42
0.0129662186036692
  0
VERTEX
  5
1099
330
1076
100
AcDbEntity
  8
AM_BOR
 62
     5
100
AcDbVertex
100
AcDb2dVertex
 10
15.16068775636085
 20
3.634338172360911
 30
0.0
 42
0.0745409377703169
  0
VERTEX
  5
109A
330
1076
100
AcDbEntity
  8
AM_BOR
 62
     5
100
AcDbVertex
100
AcDb2dVertex
 10
15.26869513156998
 20
3.40909894964079
 30
0.0
 42
0.0272198704239725
  0
VERTEX
  5
109B
330
1076
100
AcDbEntity
  8
AM_BOR
 62
     5
100
AcDbVertex
100
AcDb2dVertex
 10
15.42149040518415
 20
3.208258858513544
 30
0.0
 42
0.101805377722446
  0
VERTEX
  5
109C
330
1076
100
AcDbEntity
  8
AM_BOR
 62
     5
100
AcDbVertex
100
AcDb2dVertex
 10
15.73443284168751
 20
2.96382790410098
 30
0.0
 42
0.031428271308377
  0
VERTEX
  5
109D
330
1076
100
AcDbEntity
  8
AM_BOR
 62
     5
100
AcDbVertex
100
AcDb2dVertex
 10
15.96515176957836
 20
2.86700257116081
 30
0.0
 42
0.0402485084117302
  0
VERTEX
  5
109E
330
1076
100
AcDbEntity
  8
AM_BOR
 62
     5
100
AcDbVertex
100
AcDb2dVertex
 10
16.10451246679802
 20
2.830815181530851
 30
0.0
 42
-0.0012034733715848
  0
VERTEX
  5
109F
330
1076
100
AcDbEntity
  8
AM_BOR
 62
     5
100
AcDbVertex
100
AcDb2dVertex
 10
16.24719357613503
 20
2.805439354787266
 30
0.0
 42
0.0302458868039793
  0
VERTEX
  5
10A0
330
1076
100
AcDbEntity
  8
AM_BOR
 62
     5
100
AcDbVertex
100
AcDb2dVertex
 10
16.39146127824507
 20
2.788344623063266
 30
0.0
 42
-0.0013953091678949
  0
VERTEX
  5
10A1
330
1076
100
AcDbEntity
  8
AM_BOR
 62
     5
100
AcDbVertex
100
AcDb2dVertex
 10
16.91310994826926
 20
2.756871727278848
 30
0.0
 42
-2.494432653752016
  0
SEQEND
  5
10A2
330
1076
100
AcDbEntity
  8
AM_BOR
 62
     5
  0
POLYLINE
  5
10A3
102
{ACAD_REACTORS
330
102D
102
}
330
102C
100
AcDbEntity
  8
AM_BOR
 62
     5
100
AcDb2dPolyline
 66
     1
 10
0.0
 20
0.0
 30
0.0
  0
VERTEX
  5
10A4
330
10A3
100
AcDbEntity
  8
AM_BOR
 62
     5
100
AcDbVertex
100
AcDb2dVertex
 10
11.3421984962988
 20
2.757429675000819
 30
0.0
  0
VERTEX
  5
10A5
330
10A3
100
AcDbEntity
  8
AM_BOR
 62
     5
100
AcDbVertex
100
AcDb2dVertex
 10
13.26287734834113
 20
2.757429675000819
 30
0.0
  0
VERTEX
  5
10A6
330
10A3
100
AcDbEntity
  8
AM_BOR
 62
     5
100
AcDbVertex
100
AcDb2dVertex
 10
15.62139996335099
 20
6.842510675000085
 30
0.0
  0
VERTEX
  5
10A7
330
10A3
100
AcDbEntity
  8
AM_BOR
 62
     5
100
AcDbVertex
100
AcDb2dVertex
 10
13.90813353547128
 20
6.842510675000085
 30
0.0
  0
VERTEX
  5
10A8
330
10A3
100
AcDbEntity
  8
AM_BOR
 62
     5
100
AcDbVertex
100
AcDb2dVertex
 10
12.61128751330033
 20
4.596307475006141
 30
0.0
  0
VERTEX
  5
10A9
330
10A3
100
AcDbEntity
  8
AM_BOR
 62
     5
100
AcDbVertex
100
AcDb2dVertex
 10
12.33548843967946
 20
6.842510675000085
 30
0.0
  0
VERTEX
  5
10AA
330
10A3
100
AcDbEntity
  8
AM_BOR
 62
     5
100
AcDbVertex
100
AcDb2dVertex
 10
10.84061361946076
 20
6.842510675000085
 30
0.0
  0
VERTEX
  5
10AB
330
10A3
100
AcDbEntity
  8
AM_BOR
 62
     5
100
AcDbVertex
100
AcDb2dVertex
 10
11.3421984962988
 20
2.757429675000819
 30
0.0
  0
SEQEND
  5
10AC
330
10A3
100
AcDbEntity
  8
AM_BOR
 62
     5
  0
REGION
  5
10AD
102
{ACAD_REACTORS
330
102D
102
}
330
102C
100
AcDbEntity
  8
AM_BOR
 62
     5
100
AcDbModelerGeometry
 70
     1
  1
koo o o o           
  1
h J1410(1 nl ^ \VL kqoqm QK mk K7* R>- nj nnekkejn mooh 
  1
rn fqfffffffffffffffj:rooh n:rono 
  0
POLYLINE
  5
10AE
102
{ACAD_REACTORS
330
102D
102
}
330
102C
100
AcDbEntity
  8
AM_BOR
 62
     5
100
AcDb2dPolyline
 66
     1
 10
0.0
 20
0.0
 30
0.0
  0
VERTEX
  5
10AF
330
10AE
100
AcDbEntity
  8
AM_BOR
 62
     5
100
AcDbVertex
100
AcDb2dVertex
 10
7.704335373269714
 20
2.756871727278848
 30
0.0
  0
VERTEX
  5
10B0
330
10AE
100
AcDbEntity
  8
AM_BOR
 62
     5
100
AcDbVertex
100
AcDb2dVertex
 10
7.895978572134481
 20
2.75496408078561
 30
0.0
 42
0.0909017163086509
  0
VERTEX
  5
10B1
330
10AE
100
AcDbEntity
  8
AM_BOR
 62
     5
100
AcDbVertex
100
AcDb2dVertex
 10
8.638621564539789
 20
2.883477174477775
 30
0.0
 42
0.0447069618130351
  0
VERTEX
  5
10B2
330
10AE
100
AcDbEntity
  8
AM_BOR
 62
     5
100
AcDbVertex
100
AcDb2dVertex
 10
9.268799749042898
 20
3.181702338122747
 30
0.0
 42
0.1128175077099557
  0
VERTEX
  5
10B3
330
10AE
100
AcDbEntity
  8
AM_BOR
 62
     5
100
AcDbVertex
100
AcDb2dVertex
 10
9.964057682434939
 20
3.837304033206237
 30
0.0
 42
0.0608211245356395
  0
VERTEX
  5
10B4
330
10AE
100
AcDbEntity
  8
AM_BOR
 62
     5
100
AcDbVertex
100
AcDb2dVertex
 10
10.33263235317281
 20
4.565473170722723
 30
0.0
 42
0.0493318581253993
  0
VERTEX
  5
10B5
330
10AE
100
AcDbEntity
  8
AM_BOR
 62
     5
100
AcDbVertex
100
AcDb2dVertex
 10
10.4387650076096
 20
4.983752515422565
 30
0.0
 42
0.0656908092236847
  0
VERTEX
  5
10B6
330
10AE
100
AcDbEntity
  8
AM_BOR
 62
     5
100
AcDbVertex
100
AcDb2dVertex
 10
10.44514081509986
 20
5.324388810015988
 30
0.0
 42
0.0263841447688464
  0
VERTEX
  5
10B7
330
10AE
100
AcDbEntity
  8
AM_BOR
 62
     5
100
AcDbVertex
100
AcDb2dVertex
 10
10.36109405077513
 20
5.828404162340106
 30
0.0
 42
0.1110320077356657
  0
VERTEX
  5
10B8
330
10AE
100
AcDbEntity
  8
AM_BOR
 62
     5
100
AcDbVertex
100
AcDb2dVertex
 10
10.14880145814458
 20
6.280340163397338
 30
0.0
 42
0.0954769237506086
  0
VERTEX
  5
10B9
330
10AE
100
AcDbEntity
  8
AM_BOR
 62
     5
100
AcDbVertex
100
AcDb2dVertex
 10
9.743255806701199
 20
6.636112445898104
 30
0.0
 42
0.104519800845784
  0
VERTEX
  5
10BA
330
10AE
100
AcDbEntity
  8
AM_BOR
 62
     5
100
AcDbVertex
100
AcDb2dVertex
 10
9.30213599696799
 20
6.783006586648297
 30
0.0
 42
-0.0034833120879635
  0
VERTEX
  5
10BB
330
10AE
100
AcDbEntity
  8
AM_BOR
 62
     5
100
AcDbVertex
100
AcDb2dVertex
 10
9.013729129546844
 20
6.817822382489794
 30
0.0
 42
0.0335120487588771
  0
VERTEX
  5
10BC
330
10AE
100
AcDbEntity
  8
AM_BOR
 62
     5
100
AcDbVertex
100
AcDb2dVertex
 10
8.794943468092242
 20
6.830988109019926
 30
0.0
  0
VERTEX
  5
10BD
330
10AE
100
AcDbEntity
  8
AM_BOR
 62
     5
100
AcDbVertex
100
AcDb2dVertex
 10
8.380732152007112
 20
6.845177801124007
 30
0.0
 42
0.0479928409144531
  0
VERTEX
  5
10BE
330
10AE
100
AcDbEntity
  8
AM_BOR
 62
     5
100
AcDbVertex
100
AcDb2dVertex
 10
8.187601201279901
 20
6.833252613701914
 30
0.0
 42
-0.010976987352034
  0
VERTEX
  5
10BF
330
10AE
100
AcDbEntity
  8
AM_BOR
 62
     5
100
AcDbVertex
100
AcDb2dVertex
 10
7.996063688035062
 20
6.807114424193057
 30
0.0
 42
0.0475054927706009
  0
VERTEX
  5
10C0
330
10AE
100
AcDbEntity
  8
AM_BOR
 62
     5
100
AcDbVertex
100
AcDb2dVertex
 10
7.806954654850414
 20
6.767081222201341
 30
0.0
 42
0.00389769197541
  0
VERTEX
  5
10C1
330
10AE
100
AcDbEntity
  8
AM_BOR
 62
     5
100
AcDbVertex
100
AcDb2dVertex
 10
7.466279894026227
 20
6.657446850374071
 30
0.0
 42
0.0453174944271857
  0
VERTEX
  5
10C2
330
10AE
100
AcDbEntity
  8
AM_BOR
 62
     5
100
AcDbVertex
100
AcDb2dVertex
 10
7.306172168275224
 20
6.587912866070838
 30
0.0
 42
0.002957919191788
  0
VERTEX
  5
10C3
330
10AE
100
AcDbEntity
  8
AM_BOR
 62
     5
100
AcDbVertex
100
AcDb2dVertex
 10
7.000114324353487
 20
6.418238011880927
 30
0.0
 42
0.0476208228899992
  0
VERTEX
  5
10C4
330
10AE
100
AcDbEntity
  8
AM_BOR
 62
     5
100
AcDbVertex
100
AcDb2dVertex
 10
6.838000214669591
 20
6.305585722194335
 30
0.0
 42
-0.0083493205578895
  0
VERTEX
  5
10C5
330
10AE
100
AcDbEntity
  8
AM_BOR
 62
     5
100
AcDbVertex
100
AcDb2dVertex
 10
6.668357484149765
 20
6.166777615834321
 30
0.0
 42
0.0665790239931206
  0
VERTEX
  5
10C6
330
10AE
100
AcDbEntity
  8
AM_BOR
 62
     5
100
AcDbVertex
100
AcDb2dVertex
 10
6.410597092890384
 20
5.900299122363321
 30
0.0
 42
0.00919430990576
  0
VERTEX
  5
10C7
330
10AE
100
AcDbEntity
  8
AM_BOR
 62
     5
100
AcDbVertex
100
AcDb2dVertex
 10
6.209906472355214
 20
5.617644580484918
 30
0.0
 42
0.0437329637914695
  0
VERTEX
  5
10C8
330
10AE
100
AcDbEntity
  8
AM_BOR
 62
     5
100
AcDbVertex
100
AcDb2dVertex
 10
6.12479629781228
 20
5.466065271100887
 30
0.0
 42
-0.0126523869623815
  0
VERTEX
  5
10C9
330
10AE
100
AcDbEntity
  8
AM_BOR
 62
     5
100
AcDbVertex
100
AcDb2dVertex
 10
6.039352748414442
 20
5.288964253182371
 30
0.0
 42
0.0450352780064447
  0
VERTEX
  5
10CA
330
10AE
100
AcDbEntity
  8
AM_BOR
 62
     5
100
AcDbVertex
100
AcDb2dVertex
 10
5.936281720205585
 20
5.034467179246076
 30
0.0
 42
-0.0142812660732206
  0
VERTEX
  5
10CB
330
10AE
100
AcDbEntity
  8
AM_BOR
 62
     5
100
AcDbVertex
100
AcDb2dVertex
 10
5.895794679418029
 20
4.913654207271973
 30
0.0
 42
0.0444410527900133
  0
VERTEX
  5
10CC
330
10AE
100
AcDbEntity
  8
AM_BOR
 62
     5
100
AcDbVertex
100
AcDb2dVertex
 10
5.85827101470383
 20
4.774336849354681
 30
0.0
 42
0.0080679739844816
  0
VERTEX
  5
10CD
330
10AE
100
AcDbEntity
  8
AM_BOR
 62
     5
100
AcDbVertex
100
AcDb2dVertex
 10
5.824577690316798
 20
4.563051502226699
 30
0.0
 42
0.049913190906255
  0
VERTEX
  5
10CE
330
10AE
100
AcDbEntity
  8
AM_BOR
 62
     5
100
AcDbVertex
100
AcDb2dVertex
 10
5.818530055057633
 20
4.420023249034784
 30
0.0
 42
0.0054269149591697
  0
VERTEX
  5
10CF
330
10AE
100
AcDbEntity
  8
AM_BOR
 62
     5
100
AcDbVertex
100
AcDb2dVertex
 10
5.838360997579002
 20
4.130293251455441
 30
0.0
 42
0.0418419209559064
  0
VERTEX
  5
10D0
330
10AE
100
AcDbEntity
  8
AM_BOR
 62
     5
100
AcDbVertex
100
AcDb2dVertex
 10
5.874038816466052
 20
3.913120245550087
 30
0.0
 42
0.0129662186036692
  0
VERTEX
  5
10D1
330
10AE
100
AcDbEntity
  8
AM_BOR
 62
     5
100
AcDbVertex
100
AcDb2dVertex
 10
5.951913181361303
 20
3.634338172360911
 30
0.0
 42
0.0745409377703169
  0
VERTEX
  5
10D2
330
10AE
100
AcDbEntity
  8
AM_BOR
 62
     5
100
AcDbVertex
100
AcDb2dVertex
 10
6.059920556570432
 20
3.40909894964079
 30
0.0
 42
0.0272198704239725
  0
VERTEX
  5
10D3
330
10AE
100
AcDbEntity
  8
AM_BOR
 62
     5
100
AcDbVertex
100
AcDb2dVertex
 10
6.212715830184606
 20
3.208258858513544
 30
0.0
 42
0.101805377722446
  0
VERTEX
  5
10D4
330
10AE
100
AcDbEntity
  8
AM_BOR
 62
     5
100
AcDbVertex
100
AcDb2dVertex
 10
6.525658266687967
 20
2.96382790410098
 30
0.0
 42
0.031428271308377
  0
VERTEX
  5
10D5
330
10AE
100
AcDbEntity
  8
AM_BOR
 62
     5
100
AcDbVertex
100
AcDb2dVertex
 10
6.756377194578816
 20
2.86700257116081
 30
0.0
 42
0.0402485084117302
  0
VERTEX
  5
10D6
330
10AE
100
AcDbEntity
  8
AM_BOR
 62
     5
100
AcDbVertex
100
AcDb2dVertex
 10
6.895737891798487
 20
2.830815181530851
 30
0.0
 42
-0.0012034733715848
  0
VERTEX
  5
10D7
330
10AE
100
AcDbEntity
  8
AM_BOR
 62
     5
100
AcDbVertex
100
AcDb2dVertex
 10
7.03841900113548
 20
2.805439354787266
 30
0.0
 42
0.0302458868039793
  0
VERTEX
  5
10D8
330
10AE
100
AcDbEntity
  8
AM_BOR
 62
     5
100
AcDbVertex
100
AcDb2dVertex
 10
7.182686703245535
 20
2.788344623063266
 30
0.0
 42
-0.0013953091678949
  0
VERTEX
  5
10D9
330
10AE
100
AcDbEntity
  8
AM_BOR
 62
     5
100
AcDbVertex
100
AcDb2dVertex
 10
7.704335373269714
 20
2.756871727278848
 30
0.0
 42
-2.494432653752016
  0
SEQEND
  5
10DA
330
10AE
100
AcDbEntity
  8
AM_BOR
 62
     5
  0
LWPOLYLINE
  5
10DB
102
{ACAD_REACTORS
330
102D
102
}
330
102C
100
AcDbEntity
  8
AM_BOR
 62
     5
100
AcDbPolyline
 90
       17
 70
     1
 43
0.0
 10
25.45332580325302
 20
5.67218274399141
 42
0.109945058037567
 10
25.26921064919941
 20
5.839399103673768
 42
-0.0074639598770641
 10
25.1587568679862
 20
5.890719326794111
 42
0.0417765846960682
 10
25.07502631770512
 20
5.913501506171312
 42
0.0679293135757625
 10
24.94163728539567
 20
5.915644604644497
 10
24.78282718761002
 20
5.878753186546488
 10
24.66964862836174
 20
5.824409404643217
 10
24.60972116653289
 20
5.785458283237928
 10
24.50091366493865
 20
5.694869881845946
 10
24.40615488179147
 20
5.590955653612411
 10
24.36374875908621
 20
5.53499958773274
 10
24.28837240139185
 20
5.417242285815562
 10
24.21108932907739
 20
5.261079595759454
 10
24.17337599526948
 20
5.163683653958344
 42
0.5457641877349403
 10
24.21075690074943
 20
5.112385964994246
 10
25.60421250287982
 20
5.112385964996065
 42
0.443161319894328
 10
25.64256679333194
 20
5.154688025299519
 42
0.1219619426764931
  0
MTEXT
  5
10DC
330
102C
100
AcDbEntity
  8
AM_BOR
 62
     5
100
AcDbMText
 10
39.99727427125647
 20
9.618999005459171
 30
0.0
 40
1.5
 41
1.780199999999999
 71
     1
 72
     5
  1
\fSymbol|b0|i0|c2|p18;â
 73
     1
 44
1.0
  0
POLYLINE
  5
10DD
102
{ACAD_REACTORS
330
102D
102
}
330
102C
100
AcDbEntity
  8
AM_BOR
 62
     5
100
AcDb2dPolyline
 66
     1
 10
0.0
 20
0.0
 30
0.0
  0
VERTEX
  5
10DE
330
10DD
100
AcDbEntity
  8
AM_BOR
 62
     5
100
AcDbVertex
100
AcDb2dVertex
 10
33.04289180335036
 20
6.842510675000085
 30
0.0
  0
VERTEX
  5
10DF
330
10DD
100
AcDbEntity
  8
AM_BOR
 62
     5
100
AcDbVertex
100
AcDb2dVertex
 10
31.52601209226121
 20
6.842510675000085
 30
0.0
  0
VERTEX
  5
10E0
330
10DD
100
AcDbEntity
  8
AM_BOR
 62
     5
100
AcDbVertex
100
AcDb2dVertex
 10
30.65770132076067
 20
2.757429675000819
 30
0.0
  0
VERTEX
  5
10E1
330
10DD
100
AcDbEntity
  8
AM_BOR
 62
     5
100
AcDbVertex
100
AcDb2dVertex
 10
32.1745810318389
 20
2.757429675000819
 30
0.0
  0
VERTEX
  5
10E2
330
10DD
100
AcDbEntity
  8
AM_BOR
 62
     5
100
AcDbVertex
100
AcDb2dVertex
 10
32.76507681714065
 20
5.535493926003253
 30
0.0
 42
-0.9999999999963371
  0
VERTEX
  5
10E3
330
10DD
100
AcDbEntity
  8
AM_BOR
 62
     5
100
AcDbVertex
100
AcDb2dVertex
 10
34.01819507524851
 20
5.269135417694085
 30
0.0
  0
VERTEX
  5
10E4
330
10DD
100
AcDbEntity
  8
AM_BOR
 62
     5
100
AcDbVertex
100
AcDb2dVertex
 10
33.48431553864064
 20
2.757429675000819
 30
0.0
  0
VERTEX
  5
10E5
330
10DD
100
AcDbEntity
  8
AM_BOR
 62
     5
100
AcDbVertex
100
AcDb2dVertex
 10
35.00119524972979
 20
2.757429675000819
 30
0.0
  0
VERTEX
  5
10E6
330
10DD
100
AcDbEntity
  8
AM_BOR
 62
     5
100
AcDbVertex
100
AcDb2dVertex
 10
35.59169103502063
 20
5.535493926000525
 30
0.0
 42
-1.000000000000764
  0
VERTEX
  5
10E7
330
10DD
100
AcDbEntity
  8
AM_BOR
 62
     5
100
AcDbVertex
100
AcDb2dVertex
 10
36.8448092931103
 20
5.269135417694085
 30
0.0
  0
VERTEX
  5
10E8
330
10DD
100
AcDbEntity
  8
AM_BOR
 62
     5
100
AcDbVertex
100
AcDb2dVertex
 10
36.31092975652063
 20
2.757429675000819
 30
0.0
  0
VERTEX
  5
10E9
330
10DD
100
AcDbEntity
  8
AM_BOR
 62
     5
100
AcDbVertex
100
AcDb2dVertex
 10
37.82780946760976
 20
2.757429675000819
 30
0.0
  0
VERTEX
  5
10EA
330
10DD
100
AcDbEntity
  8
AM_BOR
 62
     5
100
AcDbVertex
100
AcDb2dVertex
 10
38.36769004363667
 20
5.299483612262518
 30
0.0
 42
0.2047955992915715
  0
VERTEX
  5
10EB
330
10DD
100
AcDbEntity
  8
AM_BOR
 62
     5
100
AcDbVertex
100
AcDb2dVertex
 10
38.16290466578357
 20
6.337769622802623
 30
0.0
 42
0.1958133278693891
  0
VERTEX
  5
10EC
330
10DD
100
AcDbEntity
  8
AM_BOR
 62
     5
100
AcDbVertex
100
AcDb2dVertex
 10
37.49228911838871
 20
6.782256092353236
 30
0.0
 42
0.0613632277335026
  0
VERTEX
  5
10ED
330
10DD
100
AcDbEntity
  8
AM_BOR
 62
     5
100
AcDbVertex
100
AcDb2dVertex
 10
36.66997497299599
 20
6.844886904425036
 30
0.0
 42
0.036507513880125
  0
VERTEX
  5
10EE
330
10DD
100
AcDbEntity
  8
AM_BOR
 62
     5
100
AcDbVertex
100
AcDb2dVertex
 10
36.21980659389373
 20
6.790816867349348
 30
0.0
 42
0.1305464570498591
  0
VERTEX
  5
10EF
330
10DD
100
AcDbEntity
  8
AM_BOR
 62
     5
100
AcDbVertex
100
AcDb2dVertex
 10
35.87139908185054
 20
6.621594027793435
 30
0.0
 42
-0.0059809100390943
  0
VERTEX
  5
10F0
330
10DD
100
AcDbEntity
  8
AM_BOR
 62
     5
100
AcDbVertex
100
AcDb2dVertex
 10
35.63492814715209
 20
6.422494764647126
 30
0.0
 42
0.0446418979832524
  0
VERTEX
  5
10F1
330
10DD
100
AcDbEntity
  8
AM_BOR
 62
     5
100
AcDbVertex
100
AcDb2dVertex
 10
35.4559779941992
 20
6.246500279536119
 30
0.0
 42
-0.5411024569528814
  0
VERTEX
  5
10F2
330
10DD
100
AcDbEntity
  8
AM_BOR
 62
     5
100
AcDbVertex
100
AcDb2dVertex
 10
35.3976978392202
 20
6.253863566588732
 30
0.0
 42
0.0997314832661338
  0
VERTEX
  5
10F3
330
10DD
100
AcDbEntity
  8
AM_BOR
 62
     5
100
AcDbVertex
100
AcDb2dVertex
 10
35.30890026242921
 20
6.370199023504937
 30
0.0
 42
-0.0107241506855666
  0
VERTEX
  5
10F4
330
10DD
100
AcDbEntity
  8
AM_BOR
 62
     5
100
AcDbVertex
100
AcDb2dVertex
 10
35.08875233076469
 20
6.571814602828452
 30
0.0
 42
0.0995273728264484
  0
VERTEX
  5
10F5
330
10DD
100
AcDbEntity
  8
AM_BOR
 62
     5
100
AcDbVertex
100
AcDb2dVertex
 10
34.90030892166396
 20
6.691152320654508
 30
0.0
 42
-0.027717099531359
  0
VERTEX
  5
10F6
330
10DD
100
AcDbEntity
  8
AM_BOR
 62
     5
100
AcDbVertex
100
AcDb2dVertex
 10
34.77467651856932
 20
6.747490182809087
 30
0.0
 42
0.0852981154961134
  0
VERTEX
  5
10F7
330
10DD
100
AcDbEntity
  8
AM_BOR
 62
     5
100
AcDbVertex
100
AcDb2dVertex
 10
34.66123729824539
 20
6.783426384919946
 30
0.0
 42
-0.045945492240679
  0
VERTEX
  5
10F8
330
10DD
100
AcDbEntity
  8
AM_BOR
 62
     5
100
AcDbVertex
100
AcDb2dVertex
 10
34.58932261049267
 20
6.800145592720582
 30
0.0
 42
0.02596763706801
  0
VERTEX
  5
10F9
330
10DD
100
AcDbEntity
  8
AM_BOR
 62
     5
100
AcDbVertex
100
AcDb2dVertex
 10
34.43901487049358
 20
6.832576277316647
 30
0.0
 42
-0.0083141901544514
  0
VERTEX
  5
10FA
330
10DD
100
AcDbEntity
  8
AM_BOR
 62
     5
100
AcDbVertex
100
AcDb2dVertex
 10
34.34424570107685
 20
6.841491500075463
 30
0.0
 42
0.0423099571648537
  0
VERTEX
  5
10FB
330
10DD
100
AcDbEntity
  8
AM_BOR
 62
     5
100
AcDbVertex
100
AcDb2dVertex
 10
33.7999935224253
 20
6.861599607887754
 30
0.0
 42
0.2666456459169199
  0
VERTEX
  5
10FC
330
10DD
100
AcDbEntity
  8
AM_BOR
 62
     5
100
AcDbVertex
100
AcDb2dVertex
 10
32.99386825600802
 20
6.243206366011362
 30
0.0
 42
-0.8361212806961907
  0
VERTEX
  5
10FD
330
10DD
100
AcDbEntity
  8
AM_BOR
 62
     5
100
AcDbVertex
100
AcDb2dVertex
 10
32.92008244706116
 20
6.264738079698531
 30
0.0
 42
-0.0518180266859049
  0
VERTEX
  5
10FE
330
10DD
100
AcDbEntity
  8
AM_BOR
 62
     5
100
AcDbVertex
100
AcDb2dVertex
 10
33.04289180335036
 20
6.842510675000085
 30
0.0
 42
4.099231568076515
  0
SEQEND
  5
10FF
330
10DD
100
AcDbEntity
  8
AM_BOR
 62
     5
  0
ENDBLK
  5
1101
330
102C
100
AcDbEntity
  8
0
100
AcDbBlockEnd
  0
BLOCK
  5
1163
330
1104
100
AcDbEntity
  8
0
100
AcDbBlockBegin
  2
NOVOFERM
 70
     2
 10
0.0
 20
0.0
 30
0.0
  3
NOVOFERM
  1

  0
ATTDEF
  5
1105
330
1104
100
AcDbEntity
  8
AM_BOR
 62
     1
370
    25
100
AcDbText
 10
-114.3720283023119
 20
0.9492237802654555
 30
0.0
 40
2.5
  1

 41
0.8
100
AcDbAttributeDefinition
  3
Dateiname
  2
GEN-TITLE-DWG{10.8}
 70
     0
1001
GENIUS_GENTRA_14
1002
{
1070
     3
1000
GENTRAPR,%s,(GENMSG gendwg 82)
1000
Dateiname
1000
DEU
1070
     0
1070
     0
1002
}
  0
ATTDEF
  5
1106
330
1104
100
AcDbEntity
  8
AM_BOR
 62
     2
370
    35
100
AcDbText
 10
-70.95960978726719
 20
50.01451612903077
 30
0.0
 40
3.5
  1
-
 41
0.8
100
AcDbAttributeDefinition
  3
Maßstab
  2
GEN-TITLE-SCA{5.42}
 70
     0
1001
GENIUS_GENTRA_14
1002
{
1070
     3
1000
GENTRAPR,%s,(GENMSG gendwg 83)
1000
Maßstab
1000
DEU
1070
     0
1070
     0
1002
}
  0
ATTDEF
  5
1107
330
1104
100
AcDbEntity
  8
AM_BOR
 62
     1
370
    25
100
AcDbText
 10
-118.7019468872817
 20
30.41000000000002
 30
0.0
 40
2.500000000000365
  1

100
AcDbAttributeDefinition
  3
Bearbeitungsdatum
  2
GEN-TITLE-DAT{5.44}
 70
     0
1001
GENIUS_GENTRA_14
1002
{
1070
     3
1000
GENTRAPR,%s,(GENMSG gendwg 80)
1000
Bearbeitungsdatum
1000
DEU
1070
     0
1070
     0
1002
}
  0
ATTDEF
  5
1108
330
1104
100
AcDbEntity
  8
AM_BOR
 62
     1
370
    25
100
AcDbText
 10
-102.5325281430327
 20
30.41000000000002
 30
0.0
 40
2.500000000000365
  1

100
AcDbAttributeDefinition
  3
Name des Bearbeiters
  2
GEN-TITLE-NAME{5}
 70
     0
1001
GENIUS_GENTRA_14
1002
{
1070
     3
1000
GENTRAPR,%s,(GENMSG gendwg 81)
1000
Name des Bearbeiters
1000
DEU
1070
     0
1070
     0
1002
}
  0
ATTDEF
  5
1109
330
1104
100
AcDbEntity
  8
AM_BOR
 62
     2
370
    35
100
AcDbText
 10
-35.71344922694797
 20
50.01451612903224
 30
0.0
 40
3.500000000000343
  1
-
 41
0.8
100
AcDbAttributeDefinition
  3
Positionsnummer
  2
GEN-TITLE-POSI{2.20}
 70
     0
1001
GENIUS_GENTRA_14
1002
{
1070
     3
1000
GENTRAPR,%s,(GENMSG gendwg 31)
1000
Positionsnummer
1000
DEU
1070
     0
1070
     0
1002
}
  0
ATTDEF
  5
110A
330
1104
100
AcDbEntity
  8
AM_BOR
 62
     2
370
    35
100
AcDbText
 10
-16.73297243245098
 20
50.01451612903075
 30
0.0
 40
3.500000000000343
  1
-
 41
0.8
100
AcDbAttributeDefinition
  3
Menge
  2
GEN-TITLE-QTY{4.38}
 70
     0
1001
GENIUS_GENTRA_14
1002
{
1070
     3
1000
GENTRAPR,%s,(GENMSG gendwg 32)
1000
Menge
1000
DEU
1070
     0
1070
     0
1002
}
  0
ATTDEF
  5
110B
330
1104
100
AcDbEntity
  8
AM_BOR
100
AcDbText
 10
-81.2071643690715
 20
29.17459677419356
 30
0.0
 40
5.00000000000049
  1

 41
0.8
100
AcDbAttributeDefinition
  3
Zeichnungsname (mx. 20 Z.)
  2
GEN-TITLE-DES1{15.54}
 70
     0
1001
GENIUS_GENTRA_14
1002
{
1070
     3
1000
GENTRAPR,%s,(GENMSG gendwg 87)
1000
Zeichnungsname (mx. 20 Z.)
1000
DEU
1070
     0
1070
     0
1002
}
  0
ATTDEF
  5
110C
330
1104
100
AcDbEntity
  8
AM_BOR
 62
     2
370
    35
100
AcDbText
 10
-80.70716436907151
 20
21.17459677419355
 30
0.0
 40
3.500000000000171
  1

 41
0.8
100
AcDbAttributeDefinition
  3
Unterbenennung
  2
GEN-TITLE-DES2{21.21}
 70
     0
1001
GENIUS_GENTRA_14
1002
{
1070
     3
1000
GENTRAPR,%s,(GENMSG gendwg 88)
1000
Unterbenennung
1000
DEU
1070
     0
1070
     0
1002
}
  0
ATTDEF
  5
110D
330
1104
100
AcDbEntity
  8
AM_BOR
 62
     2
370
    35
100
AcDbText
 10
-59.70870723313769
 20
44.06703812316723
 30
0.0
 40
3.0
  1
-
 41
0.8
100
AcDbAttributeDefinition
  3
Material
  2
GEN-TITLE-MAT1
 70
     0
1001
GENIUS_GENTRA_14
1002
{
1070
     3
1000
GENTRAPR,%s,(GENMSG gendwg 89)
1000
Material
1000
DEU
1070
     0
1070
     0
1002
}
  0
ATTDEF
  5
110E
330
1104
100
AcDbEntity
  8
AM_BOR
 62
     2
370
    35
100
AcDbText
 10
-59.70870723313772
 20
39.78860215053771
 30
0.0
 40
3.0
  1
-
 41
0.8
100
AcDbAttributeDefinition
  3
Material (2.Zeile)
  2
GEN-TITLE-MAT2
 70
     0
1001
GENIUS_GENTRA_14
1002
{
1070
     3
1000
GENTRAPR,%s,(GENMSG gendwg 90)
1000
Material (2.Zeile)
1000
DEU
1070
     0
1070
     0
1002
}
  0
ATTDEF
  5
110F
330
1104
100
AcDbEntity
  8
AM_BOR
 62
     1
370
    25
100
AcDbText
 10
-102.0619852594995
 20
26.4915214039151
 30
0.0
 40
2.500000000000365
  1

100
AcDbAttributeDefinition
  3
Geprüft von
  2
GEN-TITLE-CHKM{5}
 70
     0
1001
GENIUS_GENTRA_14
1002
{
1070
     3
1000
GENTRAPR,%s,(GENMSG gendwg 72)
1000
Geprüft von
1000
DEU
1070
     0
1070
     0
1002
}
  0
ATTDEF
  5
1110
330
1104
100
AcDbEntity
  8
AM_BOR
 62
     1
370
    25
100
AcDbText
 10
-118.5451003624018
 20
26.17804422461478
 30
0.0
 40
2.500000000000365
  1

100
AcDbAttributeDefinition
  3
Prüfdatum
  2
GEN-TITLE-CHKD{5.41}
 70
     0
1001
GENIUS_GENTRA_14
1002
{
1070
     3
1000
GENTRAPR,%s,(GENMSG gendwg 78)
1000
Prüfdatum
1000
DEU
1070
     0
1070
     0
1002
}
  0
ATTDEF
  5
1111
330
1104
100
AcDbEntity
  8
AM_BOR
 62
     2
370
    35
100
AcDbText
 10
-5.940407113846131
 20
9.420007355724408
 30
0.0
 40
3.0
  1
-
 41
0.8
 72
     1
 11
-5.100407113846131
 21
9.420007355724408
 31
0.0
100
AcDbAttributeDefinition
  3
Blatt
  2
GEN-TITLE-SHEET{2.62}
 70
     0
1001
GENIUS_GENTRA_14
1002
{
1070
     3
1000
GENTRAPR,%s,(GENMSG gendwg 76)
1000
Blatt
1000
DEU
1070
     0
1070
     0
1002
}
  0
ATTDEF
  5
1112
330
1104
100
AcDbEntity
  8
AM_BOR
 62
     1
370
    25
100
AcDbText
 10
-5.369955967542636
 20
0.4161834165005305
 30
0.0
 40
3.000000000000293
  1

 72
     1
 11
-5.369955967542636
 21
0.4161834165005305
 31
0.0
100
AcDbAttributeDefinition
  3
Plot-Datum
  2
GEN-TITLE-PLOT{2.94}
 70
     0
1001
GENIUS_GENTRA_14
1002
{
1070
     3
1000
GENTRAPR,%s,(GENMSG gendwg 91)
1000
Plot-Datum
1000
DEU
1070
     0
1070
     0
1002
}
  0
LINE
  5
1113
330
1104
100
AcDbEntity
  8
AM_BOR
 62
     1
370
    25
100
AcDbLine
 10
-50.80000000000001
 20
54.99000000000006
 30
0.0
 11
-50.80000000000001
 21
48.66000000000006
 31
0.0
  0
TEXT
  5
1114
330
1104
100
AcDbEntity
  8
AM_BOR
 62
     1
370
    25
100
AcDbText
 10
-49.20092087271354
 20
50.60161290322579
 30
0.0
 40
2.000000000000196
  1
Position
 41
0.8
100
AcDbText
1001
GENIUS_GENTRA_14
1002
{
1070
     1
1000
GENTRATX{6.37},%s,(GENMSG gendwg 74)
1000
Position
1000
DEU
1070
     0
1040
0.8
1070
     0
1002
}
  0
TEXT
  5
1115
330
1104
100
AcDbEntity
  8
AM_BOR
 62
     1
370
    25
100
AcDbText
 10
-27.39162270706311
 20
51.00241935483872
 30
0.0
 40
2.000000000000196
  1
Menge
 41
0.8
100
AcDbText
1001
GENIUS_GENTRA_14
1002
{
1070
     1
1000
GENTRATX{4.85},%s,(GENMSG gendwg 75)
1000
Menge
1000
DEU
1070
     0
1040
0.8
1070
     0
1002
}
  0
LINE
  5
1116
330
1104
100
AcDbEntity
  8
AM_BOR
 62
     1
370
    25
100
AcDbLine
 10
-10.15999999999996
 20
8.460000000000036
 30
0.0
 11
0.0
 21
8.460000000000022
 31
0.0
  0
LINE
  5
1117
330
1104
100
AcDbEntity
  8
AM_BOR
 62
     1
370
    25
100
AcDbLine
 10
-10.15999999999999
 20
16.92000000000003
 30
0.0
 11
-10.15999999999999
 21
0.0
 31
0.0
  0
TEXT
  5
1118
330
1104
100
AcDbEntity
  8
AM_BOR
 62
     1
370
    25
100
AcDbText
 10
-3.184415883363147
 20
5.60997067448676
 30
0.0
 40
2.000000000000293
  1
Bl
 72
     1
 11
-1.98441588336297
 21
5.60997067448676
 31
0.0
100
AcDbText
1001
GENIUS_GENTRA_14
1002
{
1070
     1
1000
GENTRATX,%s,(GENMSG gendwg 77)
1000
Bl
1000
DEU
1070
     0
1040
1.0
1070
     0
1002
}
  0
TEXT
  5
1119
330
1104
100
AcDbEntity
  8
AM_BOR
 62
     1
370
    25
100
AcDbText
 10
-8.89027195615265
 20
14.06744868035187
 30
0.0
 40
2.000000000000293
  1
Blatt
 72
     1
 11
-5.790271956152196
 21
14.06744868035187
 31
0.0
100
AcDbText
1001
GENIUS_GENTRA_14
1002
{
1070
     1
1000
GENTRATX,%s,(GENMSG gendwg 76)
1000
Blatt
1000
DEU
1070
     0
1040
1.0
1070
     0
1002
}
  0
TEXT
  5
111A
330
1104
100
AcDbEntity
  8
AM_BOR
 62
     1
370
    25
100
AcDbText
 10
-117.0692984212765
 20
35.04000000000002
 30
0.0
 40
2.000000000000293
  1
Datum
 41
0.9836322182488942
 72
     1
 11
-113.3942087558013
 21
35.04000000000002
 31
0.0
100
AcDbText
1001
GENIUS_GENTRA_14
1002
{
1070
     1
1000
GENTRATX{3.38},%s,(GENMSG gendwg 62)
1000
Datum
1000
DEU
1070
     0
1040
1.0
1070
     0
1002
}
  0
TEXT
  5
111B
330
1104
100
AcDbEntity
  8
AM_BOR
 62
     1
370
    25
100
AcDbText
 10
-128.34
 20
30.71000000000001
 30
0.0
 40
2.000000000000293
  1
Bearb.
100
AcDbText
1001
GENIUS_GENTRA_14
1002
{
1070
     1
1000
GENTRATX{4.13},%s,(GENMSG gendwg 67)
1000
Bearb.
1000
DEU
1070
     0
1040
1.0
1070
     0
1002
}
  0
TEXT
  5
111C
330
1104
100
AcDbEntity
  8
AM_BOR
 62
     1
370
    25
100
AcDbText
 10
-101.0179677247366
 20
35.04000000000002
 30
0.0
 40
2.000000000000293
  1
Name
 72
     2
 11
-95.11796772473578
 21
35.04000000000002
 31
0.0
100
AcDbText
1001
GENIUS_GENTRA_14
1002
{
1070
     1
1000
GENTRATX,%s,(GENMSG gendwg 63)
1000
Name
1000
DEU
1070
     0
1040
1.0
1070
     0
1002
}
  0
LINE
  5
111D
330
1104
100
AcDbEntity
  8
AM_BOR
 62
     1
370
    25
100
AcDbLine
 10
-182.88
 20
33.84000000000003
 30
0.0
 11
-86.35999999999999
 21
33.84000000000003
 31
0.0
  0
LINE
  5
111E
330
1104
100
AcDbEntity
  8
AM_BOR
 62
     1
370
    25
100
AcDbLine
 10
-182.88
 20
29.61000000000001
 30
0.0
 11
-86.35999999999999
 21
29.61000000000001
 31
0.0
  0
LINE
  5
111F
330
1104
100
AcDbEntity
  8
AM_BOR
 62
     1
370
    25
100
AcDbLine
 10
-129.5399999999997
 20
21.15000000000003
 30
0.0
 11
-86.35999999999999
 21
21.15000000000003
 31
0.0
  0
TEXT
  5
1120
330
1104
100
AcDbEntity
  8
AM_BOR
 62
     1
370
    25
100
AcDbText
 10
-128.34
 20
22.25
 30
0.0
 40
2.000000000000293
  1
Norm
100
AcDbText
1001
GENIUS_GENTRA_14
1002
{
1070
     1
1000
GENTRATX{4.13},%s,(GENMSG gendwg 69)
1000
Norm
1000
DEU
1070
     0
1040
1.0
1070
     0
1002
}
  0
TEXT
  5
1121
330
1104
100
AcDbEntity
  8
AM_BOR
 62
     1
370
    25
100
AcDbText
 10
-136.5823351702582
 20
1.199999999998504
 30
0.0
 40
2.000000000000293
  1
Name
100
AcDbText
1001
GENIUS_GENTRA_14
1002
{
1070
     1
1000
GENTRATX{3.31},%s,(GENMSG gendwg 63)
1000
Name
1000
DEU
1070
     0
1040
1.0
1070
     0
1002
}
  0
TEXT
  5
1122
330
1104
100
AcDbEntity
  8
AM_BOR
 62
     1
370
    25
100
AcDbText
 10
-125.9373535229314
 20
1.220747800586508
 30
0.0
 40
2.000000000000196
  1
Dateiname
 41
0.8
100
AcDbText
1001
GENIUS_GENTRA_14
1002
{
1070
     1
1000
GENTRATX{4.95},%s,(GENMSG gendwg 70)
1000
Dateiname
1000
DEU
1070
     0
1040
0.8
1070
     0
1002
}
  0
LINE
  5
1123
330
1104
100
AcDbEntity
  8
AM_BOR
 62
     2
370
    35
100
AcDbLine
 10
-129.5399999999997
 20
21.15000000000003
 30
0.0
 11
-129.5399999999997
 21
0.0
 31
0.0
  0
TEXT
  5
1124
330
1104
100
AcDbEntity
  8
AM_BOR
 62
     1
370
    25
100
AcDbText
 10
-174.4163605444355
 20
1.199999999999988
 30
0.0
 40
2.000000000000293
  1
Änderungen
 72
     1
 11
-167.2801168577268
 21
1.199999999999988
 31
0.0
100
AcDbText
1001
GENIUS_GENTRA_14
1002
{
1070
     1
1000
GENTRATX,%s,(GENMSG gendwg 61)
1000
Änderungen
1000
DEU
1070
     0
1040
1.0
1070
     0
1002
}
  0
TEXT
  5
1125
330
1104
100
AcDbEntity
  8
AM_BOR
 62
     1
370
    25
100
AcDbText
 10
-181.9908006538762
 20
1.200000000000001
 30
0.0
 40
2.000000000000293
  1
Zust.
 72
     1
 11
-178.8883006538758
 21
1.200000000000001
 31
0.0
100
AcDbText
1001
GENIUS_GENTRA_14
1002
{
1070
     1
1000
GENTRATX,%s,(GENMSG gendwg 60)
1000
Zust.
1000
DEU
1070
     0
1040
1.0
1070
     0
1002
}
  0
LINE
  5
1126
330
1104
100
AcDbEntity
  8
AM_BOR
 62
     1
370
    25
100
AcDbLine
 10
-182.88
 20
25.38000000000002
 30
0.0
 11
-86.35999999999999
 21
25.38000000000002
 31
0.0
  0
TEXT
  5
1127
330
1104
100
AcDbEntity
  8
AM_BOR
 62
     1
370
    25
100
AcDbText
 10
-147.6104524425094
 20
1.199999999999988
 30
0.0
 40
2.000000000000293
  1
Datum
 72
     1
 11
-143.8742087558011
 21
1.199999999999988
 31
0.0
100
AcDbText
1001
GENIUS_GENTRA_14
1002
{
1070
     1
1000
GENTRATX,%s,(GENMSG gendwg 62)
1000
Datum
1000
DEU
1070
     0
1040
1.0
1070
     0
1002
}
  0
LINE
  5
1128
330
1104
100
AcDbEntity
  8
AM_BOR
 62
     1
370
    25
100
AcDbLine
 10
-182.88
 20
8.460000000000022
 30
0.0
 11
-129.5399999999997
 21
8.460000000000036
 31
0.0
  0
LINE
  5
1129
330
1104
100
AcDbEntity
  8
AM_BOR
 62
     1
370
    25
100
AcDbLine
 10
-182.88
 20
21.15000000000003
 30
0.0
 11
-129.5399999999997
 21
21.15000000000003
 31
0.0
  0
LINE
  5
112A
330
1104
100
AcDbEntity
  8
AM_BOR
 62
     1
370
    25
100
AcDbLine
 10
-182.88
 20
16.92000000000001
 30
0.0
 11
-129.5399999999997
 21
16.92000000000003
 31
0.0
  0
LINE
  5
112B
330
1104
100
AcDbEntity
  8
AM_BOR
 62
     1
370
    25
100
AcDbLine
 10
-182.88
 20
12.69000000000001
 30
0.0
 11
-129.5399999999997
 21
12.69000000000002
 31
0.0
  0
TEXT
  5
112C
330
1104
100
AcDbEntity
  8
AM_BOR
 62
     1
370
    25
100
AcDbText
 10
-128.34
 20
26.48000000000001
 30
0.0
 40
2.000000000000293
  1
Gepr.
100
AcDbText
1001
GENIUS_GENTRA_14
1002
{
1070
     1
1000
GENTRATX{4.19},%s,(GENMSG gendwg 68)
1000
Gepr.
1000
DEU
1070
     0
1040
1.0
1070
     0
1002
}
  0
LINE
  5
112D
330
1104
100
AcDbEntity
  8
AM_BOR
 62
     1
370
    25
100
AcDbLine
 10
-137.1599999999999
 20
38.07000000000002
 30
0.0
 11
-137.1599999999999
 21
0.0
 31
0.0
  0
LINE
  5
112E
330
1104
100
AcDbEntity
  8
AM_BOR
 62
     1
370
    25
100
AcDbLine
 10
-149.8599999999998
 20
38.07000000000002
 30
0.0
 11
-149.8599999999998
 21
0.0
 31
0.0
  0
LINE
  5
112F
330
1104
100
AcDbEntity
  8
AM_BOR
 62
     1
370
    25
100
AcDbLine
 10
-175.2599999999999
 20
38.07000000000002
 30
0.0
 11
-175.2599999999999
 21
0.0
 31
0.0
  0
LINE
  5
1130
330
1104
100
AcDbEntity
  8
AM_BOR
 62
     1
370
    25
100
AcDbLine
 10
-119.3799999999999
 20
38.07000000000002
 30
0.0
 11
-119.3799999999999
 21
21.15000000000003
 31
0.0
  0
LINE
  5
1131
330
1104
100
AcDbEntity
  8
AM_BOR
 62
     2
370
    35
100
AcDbLine
 10
-129.5399999999997
 20
54.99000000000006
 30
0.0
 11
-129.5399999999997
 21
21.15000000000003
 31
0.0
  0
LINE
  5
1132
330
1104
100
AcDbEntity
  8
AM_BOR
 62
     1
370
    25
100
AcDbLine
 10
-104.1399999999997
 20
54.99000000000006
 30
0.0
 11
-104.1399999999997
 21
16.92000000000003
 31
0.0
  0
LINE
  5
1133
330
1104
100
AcDbEntity
  8
AM_BOR
 62
     2
370
    35
100
AcDbLine
 10
-86.35999999999999
 20
54.99000000000006
 30
0.0
 11
-86.35999999999999
 21
0.0
 31
0.0
  0
LINE
  5
1134
330
1104
100
AcDbEntity
  8
AM_BOR
 62
     1
370
    25
100
AcDbLine
 10
-182.88
 20
4.230000000000018
 30
0.0
 11
0.0
 21
4.230000000000018
 31
0.0
  0
LWPOLYLINE
  5
1135
330
1104
100
AcDbEntity
  8
0
100
AcDbPolyline
 90
        4
 70
     1
 43
0.0
 10
-182.88
 20
0.0
 10
0.0
 20
0.0
 10
0.0
 20
54.99000000000001
 10
-182.88
 20
54.99000000000004
  0
LINE
  5
1136
330
1104
100
AcDbEntity
  8
AM_BOR
 62
     2
370
    35
100
AcDbLine
 10
-129.5399999999997
 20
16.92000000000003
 30
0.0
 11
0.0
 21
16.92000000000003
 31
0.0
  0
LINE
  5
1137
330
1104
100
AcDbEntity
  8
AM_BOR
 62
     2
370
    35
100
AcDbLine
 10
-182.88
 20
38.07000000000002
 30
0.0
 11
0.0
 21
38.07000000000002
 31
0.0
  0
TEXT
  5
1138
330
1104
100
AcDbEntity
  8
AM_BOR
 62
     1
370
    25
100
AcDbText
 10
-102.9542292664608
 20
50.60161290322582
 30
0.0
 40
2.000000000000293
  1
Oberfläche
100
AcDbText
1001
GENIUS_GENTRA_14
1002
{
1070
     1
1000
GENTRATX,%s,(GENMSG gendwg 71)
1000
Oberfläche
1000
DEU
1070
     0
1040
1.0
1070
     0
1002
}
  0
LINE
  5
1139
330
1104
100
AcDbEntity
  8
AM_BOR
 62
     1
370
    25
100
AcDbLine
 10
-86.35999999999999
 20
48.66000000000006
 30
0.0
 11
0.0
 21
48.66000000000004
 31
0.0
  0
TEXT
  5
113A
330
1104
100
AcDbEntity
  8
AM_BOR
 62
     1
370
    25
100
AcDbText
 10
-85.14043807672797
 20
50.60161290322582
 30
0.0
 40
2.000000000000293
  1
Maßstab
100
AcDbText
1001
GENIUS_GENTRA_14
1002
{
1070
     1
1000
GENTRATX{6.37},%s,(GENMSG gendwg 73)
1000
Maßstab
1000
DEU
1070
     0
1040
1.0
1070
     0
1002
}
  0
ATTDEF
  5
113B
330
1104
100
AcDbEntity
  8
AM_BOR
 62
     2
100
AcDbText
 10
-136.1362081164602
 20
5.068134806612532
 30
0.0
 40
2.5
  1

100
AcDbAttributeDefinition
  3
User1
  2
REV_USER_1
 70
     0
  0
ATTDEF
  5
113C
330
1104
100
AcDbEntity
  8
AM_BOR
 62
     2
100
AcDbText
 10
-182.0184715911954
 20
5.410416986614675
 30
0.0
 40
2.5
  1

100
AcDbAttributeDefinition
  3
Revision 1
  2
REV_CODE_1
 70
     0
  0
ATTDEF
  5
113D
330
1104
100
AcDbEntity
  8
AM_BOR
 62
     2
100
AcDbText
 10
-173.7905200919858
 20
4.839603437312346
 30
0.0
 40
2.5
  1

100
AcDbAttributeDefinition
  3
Änderung 1
  2
REV_TEXT_1
 70
     0
  0
ATTDEF
  5
113E
330
1104
100
AcDbEntity
  8
AM_BOR
 62
     2
100
AcDbText
 10
-148.8781067334139
 20
5.067929272254216
 30
0.0
 40
2.5
  1

100
AcDbAttributeDefinition
  3
Änderungsdatum 1
  2
REV_DATE_1
 70
     0
  0
ATTDEF
  5
113F
330
1104
100
AcDbEntity
  8
AM_BOR
 62
     2
100
AcDbText
 10
-136.1362081164602
 20
9.298134806612537
 30
0.0
 40
2.5
  1

100
AcDbAttributeDefinition
  3
User2
  2
REV_USER_2
 70
     0
  0
ATTDEF
  5
1140
330
1104
100
AcDbEntity
  8
AM_BOR
 62
     2
100
AcDbText
 10
-148.8781067334139
 20
9.297929272254222
 30
0.0
 40
2.5
  1

100
AcDbAttributeDefinition
  3
Änderungsdatum 2
  2
REV_DATE_2
 70
     0
  0
ATTDEF
  5
1141
330
1104
100
AcDbEntity
  8
AM_BOR
 62
     2
100
AcDbText
 10
-173.7905200919858
 20
9.069603437312348
 30
0.0
 40
2.5
  1

100
AcDbAttributeDefinition
  3
Änderung 2
  2
REV_TEXT_2
 70
     0
  0
ATTDEF
  5
1142
330
1104
100
AcDbEntity
  8
AM_BOR
 62
     2
100
AcDbText
 10
-182.0184715911954
 20
9.640416986614679
 30
0.0
 40
2.5
  1

100
AcDbAttributeDefinition
  3
Revision 2
  2
REV_CODE_2
 70
     0
  0
ATTDEF
  5
1143
330
1104
100
AcDbEntity
  8
AM_BOR
 62
     2
100
AcDbText
 10
-136.1362081164602
 20
13.52813480661254
 30
0.0
 40
2.5
  1

100
AcDbAttributeDefinition
  3
User 3
  2
REV_USER_3
 70
     0
  0
ATTDEF
  5
1144
330
1104
100
AcDbEntity
  8
AM_BOR
 62
     2
100
AcDbText
 10
-148.8781067334139
 20
13.52792927225422
 30
0.0
 40
2.5
  1

100
AcDbAttributeDefinition
  3
Änderungsdatum 3
  2
REV_DATE_3
 70
     0
  0
ATTDEF
  5
1145
330
1104
100
AcDbEntity
  8
AM_BOR
 62
     2
100
AcDbText
 10
-173.7905200919858
 20
13.29960343731235
 30
0.0
 40
2.5
  1

100
AcDbAttributeDefinition
  3
Änderung 3
  2
REV_TEXT_3
 70
     0
  0
ATTDEF
  5
1146
330
1104
100
AcDbEntity
  8
AM_BOR
 62
     2
100
AcDbText
 10
-182.0184715911954
 20
13.87041698661468
 30
0.0
 40
2.5
  1

100
AcDbAttributeDefinition
  3
Revision 3
  2
REV_CODE_3
 70
     0
  0
ATTDEF
  5
1147
330
1104
100
AcDbEntity
  8
AM_BOR
 62
     2
100
AcDbText
 10
-136.1362081164602
 20
17.75813480661253
 30
0.0
 40
2.5
  1

100
AcDbAttributeDefinition
  3
User4
  2
REV_USER_4
 70
     0
  0
ATTDEF
  5
1148
330
1104
100
AcDbEntity
  8
AM_BOR
 62
     2
100
AcDbText
 10
-148.8781067334139
 20
17.75792927225421
 30
0.0
 40
2.5
  1

100
AcDbAttributeDefinition
  3
Änderungsdatum 4
  2
REV_DATE_4
 70
     0
  0
ATTDEF
  5
1149
330
1104
100
AcDbEntity
  8
AM_BOR
 62
     2
100
AcDbText
 10
-173.7905200919858
 20
17.52960343731233
 30
0.0
 40
2.5
  1

100
AcDbAttributeDefinition
  3
Änderung 4
  2
REV_TEXT_4
 70
     0
  0
ATTDEF
  5
114A
330
1104
100
AcDbEntity
  8
AM_BOR
 62
     2
100
AcDbText
 10
-182.0184715911954
 20
18.10041698661467
 30
0.0
 40
2.5
  1

100
AcDbAttributeDefinition
  3
Revision 4
  2
REV_CODE_4
 70
     0
  0
ATTDEF
  5
114B
330
1104
100
AcDbEntity
  8
AM_BOR
100
AcDbText
 10
-175.161705772467
 20
56.82076817905488
 30
0.0
 40
5.0
  1
-
 41
0.8
100
AcDbAttributeDefinition
  3
Verfügbarkeit
  2
AVAILABLE
 70
     0
  0
ATTDEF
  5
114C
330
1104
100
AcDbEntity
  8
AM_BOR
 62
     2
100
AcDbText
 10
-182.0184715911954
 20
22.33041698661469
 30
0.0
 40
2.5
  1

100
AcDbAttributeDefinition
  3
Revision 5
  2
REV_CODE_5
 70
     0
  0
ATTDEF
  5
114D
330
1104
100
AcDbEntity
  8
AM_BOR
 62
     2
100
AcDbText
 10
-173.7905200919858
 20
21.75960343731236
 30
0.0
 40
2.5
  1

100
AcDbAttributeDefinition
  3
Änderung 5
  2
REV_TEXT_5
 70
     0
  0
ATTDEF
  5
114E
330
1104
100
AcDbEntity
  8
AM_BOR
 62
     2
100
AcDbText
 10
-148.8781067334139
 20
21.98792927225422
 30
0.0
 40
2.5
  1

100
AcDbAttributeDefinition
  3
Änderungsdatum 5
  2
REV_DATE_5
 70
     0
  0
ATTDEF
  5
114F
330
1104
100
AcDbEntity
  8
AM_BOR
 62
     2
100
AcDbText
 10
-136.1362081164602
 20
21.98813480661255
 30
0.0
 40
2.5
  1

100
AcDbAttributeDefinition
  3
User5
  2
REV_USER_5
 70
     0
  0
ATTDEF
  5
1150
330
1104
100
AcDbEntity
  8
AM_BOR
 62
     2
100
AcDbText
 10
-182.0184715911954
 20
26.56041698661468
 30
0.0
 40
2.5
  1

100
AcDbAttributeDefinition
  3
Revision 6
  2
REV_CODE_6
 70
     0
  0
ATTDEF
  5
1151
330
1104
100
AcDbEntity
  8
AM_BOR
 62
     2
100
AcDbText
 10
-173.7905200919858
 20
25.98960343731235
 30
0.0
 40
2.5
  1

100
AcDbAttributeDefinition
  3
Änderung 6
  2
REV_TEXT_6
 70
     0
  0
ATTDEF
  5
1152
330
1104
100
AcDbEntity
  8
AM_BOR
 62
     2
100
AcDbText
 10
-148.8781067334139
 20
26.21792927225422
 30
0.0
 40
2.5
  1

100
AcDbAttributeDefinition
  3
Änderungsdatum 6
  2
REV_DATE_6
 70
     0
  0
ATTDEF
  5
1153
330
1104
100
AcDbEntity
  8
AM_BOR
 62
     2
100
AcDbText
 10
-136.1362081164602
 20
26.21813480661254
 30
0.0
 40
2.5
  1

100
AcDbAttributeDefinition
  3
User6
  2
REV_USER_6
 70
     0
  0
ATTDEF
  5
1154
330
1104
100
AcDbEntity
  8
AM_BOR
 62
     2
100
AcDbText
 10
-182.0184715911954
 20
30.79041698661467
 30
0.0
 40
2.5
  1

100
AcDbAttributeDefinition
  3
Revision 7
  2
REV_CODE_7
 70
     0
  0
ATTDEF
  5
1155
330
1104
100
AcDbEntity
  8
AM_BOR
 62
     2
100
AcDbText
 10
-173.7905200919858
 20
30.21960343731234
 30
0.0
 40
2.5
  1

100
AcDbAttributeDefinition
  3
Änderung 7
  2
REV_TEXT_7
 70
     0
  0
ATTDEF
  5
1156
330
1104
100
AcDbEntity
  8
AM_BOR
 62
     2
100
AcDbText
 10
-148.8781067334139
 20
30.44792927225421
 30
0.0
 40
2.5
  1

100
AcDbAttributeDefinition
  3
Änderungsdatum 7
  2
REV_DATE_7
 70
     0
  0
ATTDEF
  5
1157
330
1104
100
AcDbEntity
  8
AM_BOR
 62
     2
100
AcDbText
 10
-136.1362081164602
 20
30.44813480661253
 30
0.0
 40
2.5
  1

100
AcDbAttributeDefinition
  3
User7
  2
REV_USER_7
 70
     0
  0
ATTDEF
  5
1158
330
1104
100
AcDbEntity
  8
AM_BOR
 62
     2
100
AcDbText
 10
-182.0184715911954
 20
35.02041698661469
 30
0.0
 40
2.5
  1

100
AcDbAttributeDefinition
  3
Revision 8
  2
REV_CODE_8
 70
     0
  0
ATTDEF
  5
1159
330
1104
100
AcDbEntity
  8
AM_BOR
 62
     2
100
AcDbText
 10
-173.7905200919858
 20
34.44960343731236
 30
0.0
 40
2.5
  1

100
AcDbAttributeDefinition
  3
Änderung 8
  2
REV_TEXT_8
 70
     0
  0
ATTDEF
  5
115A
330
1104
100
AcDbEntity
  8
AM_BOR
 62
     2
100
AcDbText
 10
-148.8781067334139
 20
34.67792927225421
 30
0.0
 40
2.5
  1

100
AcDbAttributeDefinition
  3
Änderungsdatum 8
  2
REV_DATE_8
 70
     0
  0
ATTDEF
  5
115B
330
1104
100
AcDbEntity
  8
AM_BOR
 62
     2
100
AcDbText
 10
-136.1362081164602
 20
34.67813480661254
 30
0.0
 40
2.5
  1

100
AcDbAttributeDefinition
  3
User8
  2
REV_USER_8
 70
     0
  0
INSERT
  5
115C
330
1104
100
AcDbEntity
  8
AM_BOR
100
AcDbBlockReference
  2
Logo novoferm neu
 10
-178.2857223012905
 20
40.72233063601044
 30
0.0
  0
ATTDEF
  5
115D
330
1104
100
AcDbEntity
  8
AM_BOR
100
AcDbText
 10
-81.6060020983652
 20
7.874999999999985
 30
0.0
 40
5.0
  1
-
100
AcDbAttributeDefinition
  3
Zeichnungsnr.
  2
ZNR_NOVOFERM
 70
     0
  0
TEXT
  5
115E
330
1104
100
AcDbEntity
  8
AM_BOR
 62
     2
370
    35
100
AcDbText
 10
-85.38006578331158
 20
44.1274334850924
 30
0.0
 40
3.0
  1
Werkstoff
100
AcDbText
  0
TEXT
  5
115F
330
1104
100
AcDbEntity
  8
AM_BOR
 62
     2
370
    35
100
AcDbText
 10
-85.37719793480153
 20
39.71126921568086
 30
0.0
 40
3.0
  1
Baugruppe
100
AcDbText
  0
TEXT
  5
1160
330
1104
100
AcDbEntity
  8
AM_BOR
 62
     1
100
AcDbText
 10
-84.90265122001529
 20
0.7694335667506495
 30
0.0
 40
2.5
  1
Ersatz für
100
AcDbText
  0
ATTDEF
  5
1161
330
1104
100
AcDbEntity
  8
AM_BOR
 62
     2
370
    35
100
AcDbText
 10
-66.63356148945763
 20
0.7694335667506495
 30
0.0
 40
3.0
  1

 41
0.8
100
AcDbAttributeDefinition
  3
Ersatz für
  2
ersatzf
 70
     0
  0
ATTDEF
  5
1162
330
1104
100
AcDbEntity
  8
AM_BOR
 62
     2
100
AcDbText
 10
-7.687736256015115
 20
0.6119229676981486
 30
0.0
 40
2.5
  1

100
AcDbAttributeDefinition
  3
Blattgröße
  2
BLATTGR
 70
     0
  0
ENDBLK
  5
1164
330
1104
100
AcDbEntity
  8
0
100
AcDbBlockEnd
  0
BLOCK
  5
1257
330
124D
100
AcDbEntity
  8
0
100
AcDbBlockBegin
  2
*D9
 70
     1
 10
0.0
 20
0.0
 30
0.0
  3
*D9
  1

  0
LINE
  5
27C9
330
124D
100
AcDbEntity
  8
AM_5
100
AcDbLine
 10
777.4359135865433
 20
309.9527354400513
 30
0.0
 11
777.4359135865433
 21
-72.13407925010688
 31
0.0
  0
LINE
  5
27CA
330
124D
100
AcDbEntity
  8
AM_5
100
AcDbLine
 10
-1322.564086413456
 20
309.9527354400513
 30
0.0
 11
-1322.564086413456
 21
-72.13407925010688
 31
0.0
  0
LINE
  5
27CB
330
124D
100
AcDbEntity
  8
AM_5
100
AcDbLine
 10
742.4359135865432
 20
-52.13407925010688
 30
0.0
 11
-1287.564086413456
 21
-52.13407925010688
 31
0.0
  0
SOLID
  5
27CC
330
124D
100
AcDbEntity
  8
AM_5
100
AcDbTrace
 10
742.4359135865432
 20
-46.30074591677353
 30
0.0
 11
742.4359135865432
 21
-57.9674125834402
 31
0.0
 12
777.4359135865433
 22
-52.13407925010688
 32
0.0
 13
777.4359135865433
 23
-52.13407925010688
 33
0.0
  0
SOLID
  5
27CD
330
124D
100
AcDbEntity
  8
AM_5
100
AcDbTrace
 10
-1287.564086413456
 20
-46.30074591677353
 30
0.0
 11
-1287.564086413456
 21
-57.9674125834402
 31
0.0
 12
-1322.564086413456
 22
-52.13407925010688
 32
0.0
 13
-1322.564086413456
 23
-52.13407925010688
 33
0.0
  0
MTEXT
  5
27CE
330
124D
100
AcDbEntity
  8
AM_5
 62
     2
100
AcDbMText
 10
-272.5640864134563
 20
-24.63407925010686
 30
0.0
 40
35.0
 41
0.0
 71
     5
 72
     1
  1
BWKB
 73
     1
 44
1.0
  0
POINT
  5
27CF
330
124D
100
AcDbEntity
  8
Defpoints
 62
     0
100
AcDbPoint
 10
777.4359135865433
 20
309.9527354400513
 30
0.0
  0
POINT
  5
27D0
330
124D
100
AcDbEntity
  8
Defpoints
 62
     0
100
AcDbPoint
 10
-1322.564086413456
 20
309.9527354400513
 30
0.0
  0
POINT
  5
27D1
330
124D
100
AcDbEntity
  8
Defpoints
 62
     0
100
AcDbPoint
 10
-1322.564086413456
 20
-52.13407925010688
 30
0.0
  0
ENDBLK
  5
1258
330
124D
100
AcDbEntity
  8
0
100
AcDbBlockEnd
  0
BLOCK
  5
130A
330
1300
100
AcDbEntity
  8
0
100
AcDbBlockBegin
  2
*D10
 70
     1
 10
0.0
 20
0.0
 30
0.0
  3
*D10
  1

  0
LINE
  5
27D2
330
1300
100
AcDbEntity
  8
AM_5
100
AcDbLine
 10
727.4359135865431
 20
272.4527425926085
 30
0.0
 11
727.4359135865431
 21
28.44679065529544
 31
0.0
  0
LINE
  5
27D3
330
1300
100
AcDbEntity
  8
AM_5
100
AcDbLine
 10
-1272.564086413455
 20
272.4527425926085
 30
0.0
 11
-1272.564086413455
 21
28.44679065529544
 31
0.0
  0
LINE
  5
27D4
330
1300
100
AcDbEntity
  8
AM_5
100
AcDbLine
 10
692.4359135865431
 20
48.44679065529543
 30
0.0
 11
-1237.564086413456
 21
48.44679065529543
 31
0.0
  0
SOLID
  5
27D5
330
1300
100
AcDbEntity
  8
AM_5
100
AcDbTrace
 10
692.4359135865431
 20
54.28012398862876
 30
0.0
 11
692.4359135865431
 21
42.6134573219621
 31
0.0
 12
727.4359135865431
 22
48.44679065529543
 32
0.0
 13
727.4359135865431
 23
48.44679065529543
 33
0.0
  0
SOLID
  5
27D6
330
1300
100
AcDbEntity
  8
AM_5
100
AcDbTrace
 10
-1237.564086413456
 20
54.28012398862876
 30
0.0
 11
-1237.564086413456
 21
42.6134573219621
 31
0.0
 12
-1272.564086413455
 22
48.44679065529543
 32
0.0
 13
-1272.564086413455
 23
48.44679065529543
 33
0.0
  0
MTEXT
  5
27D7
330
1300
100
AcDbEntity
  8
AM_5
 62
     2
100
AcDbMText
 10
-272.5640864134563
 20
76.19019342421593
 30
0.0
 40
35.0
 41
0.0
 71
     5
 72
     1
  1
DB
 73
     1
 44
1.0
  0
POINT
  5
27D8
330
1300
100
AcDbEntity
  8
Defpoints
 62
     0
100
AcDbPoint
 10
727.4359135865431
 20
272.4527425926085
 30
0.0
  0
POINT
  5
27D9
330
1300
100
AcDbEntity
  8
Defpoints
 62
     0
100
AcDbPoint
 10
-1272.564086413455
 20
272.4527425926085
 30
0.0
  0
POINT
  5
27DA
330
1300
100
AcDbEntity
  8
Defpoints
 62
     0
100
AcDbPoint
 10
-1272.564086413455
 20
48.44679065529543
 30
0.0
  0
ENDBLK
  5
130B
330
1300
100
AcDbEntity
  8
0
100
AcDbBlockEnd
  0
BLOCK
  5
139A
330
1390
100
AcDbEntity
  8
0
100
AcDbBlockBegin
  2
*D11
 70
     1
 10
0.0
 20
0.0
 30
0.0
  3
*D11
  1

  0
LINE
  5
27C0
330
1390
100
AcDbEntity
  8
AM_5
100
AcDbLine
 10
-1332.564076876713
 20
188.452720181262
 30
0.0
 11
-1332.564076876713
 21
-172.7149439065786
 31
0.0
  0
LINE
  5
27C1
330
1390
100
AcDbEntity
  8
AM_5
100
AcDbLine
 10
787.4359040497997
 20
188.452720181262
 30
0.0
 11
787.4359040497997
 21
-172.7149439065786
 31
0.0
  0
LINE
  5
27C2
330
1390
100
AcDbEntity
  8
AM_5
100
AcDbLine
 10
-1297.564076876713
 20
-152.7149439065786
 30
0.0
 11
752.4359040497998
 21
-152.7149439065786
 31
0.0
  0
SOLID
  5
27C3
330
1390
100
AcDbEntity
  8
AM_5
100
AcDbTrace
 10
-1297.564076876713
 20
-146.8816105732453
 30
0.0
 11
-1297.564076876713
 21
-158.5482772399119
 31
0.0
 12
-1332.564076876713
 22
-152.7149439065786
 32
0.0
 13
-1332.564076876713
 23
-152.7149439065786
 33
0.0
  0
SOLID
  5
27C4
330
1390
100
AcDbEntity
  8
AM_5
100
AcDbTrace
 10
752.4359040497998
 20
-146.8816105732453
 30
0.0
 11
752.4359040497998
 21
-158.5482772399119
 31
0.0
 12
787.4359040497997
 22
-152.7149439065786
 32
0.0
 13
787.4359040497997
 23
-152.7149439065786
 33
0.0
  0
MTEXT
  5
27C5
330
1390
100
AcDbEntity
  8
AM_5
 62
     2
100
AcDbMText
 10
-272.5640864134565
 20
-125.1527595711964
 30
0.0
 40
35.0
 41
0.0
 71
     5
 72
     1
  1
GBB min. 
 73
     1
 44
1.0
  0
POINT
  5
27C6
330
1390
100
AcDbEntity
  8
Defpoints
 62
     0
100
AcDbPoint
 10
-1332.564076876713
 20
188.452720181262
 30
0.0
  0
POINT
  5
27C7
330
1390
100
AcDbEntity
  8
Defpoints
 62
     0
100
AcDbPoint
 10
787.4359040497997
 20
188.452720181262
 30
0.0
  0
POINT
  5
27C8
330
1390
100
AcDbEntity
  8
Defpoints
 62
     0
100
AcDbPoint
 10
787.4359040497997
 20
-152.7149439065786
 30
0.0
  0
ENDBLK
  5
139B
330
1390
100
AcDbEntity
  8
0
100
AcDbBlockEnd
  0
BLOCK
  5
1424
330
1418
100
AcDbEntity
  8
0
100
AcDbBlockBegin
  2
*D12
 70
     1
 10
0.0
 20
0.0
 30
0.0
  3
*D12
  1

  0
LINE
  5
267C
330
1418
100
AcDbEntity
  8
AM_5
100
AcDbLine
 10
777.4359135865433
 20
309.9527354400513
 30
0.0
 11
777.4359135865433
 21
-72.1340792501017
 31
0.0
  0
LINE
  5
267D
330
1418
100
AcDbEntity
  8
AM_5
100
AcDbLine
 10
787.4359040497997
 20
188.452720181262
 30
0.0
 11
787.4359040497997
 21
-72.1340792501017
 31
0.0
  0
LINE
  5
267E
330
1418
100
AcDbEntity
  8
AM_5
100
AcDbLine
 10
742.4359135865431
 20
-52.13407925010172
 30
0.0
 11
707.4359135865432
 21
-52.13407925010172
 31
0.0
  0
LINE
  5
267F
330
1418
100
AcDbEntity
  8
AM_5
100
AcDbLine
 10
822.4359040497997
 20
-52.13407925010172
 30
0.0
 11
908.9634631049181
 21
-52.13407925010172
 31
0.0
  0
LINE
  5
2680
330
1418
100
AcDbEntity
  8
AM_5
100
AcDbLine
 10
777.4359135865433
 20
-52.13407925010172
 30
0.0
 11
787.4359040497997
 21
-52.13407925010172
 31
0.0
  0
SOLID
  5
2681
330
1418
100
AcDbEntity
  8
AM_5
100
AcDbTrace
 10
742.4359135865431
 20
-46.30074591676836
 30
0.0
 11
742.4359135865431
 21
-57.96741258343505
 31
0.0
 12
777.4359135865433
 22
-52.13407925010172
 32
0.0
 13
777.4359135865433
 23
-52.13407925010172
 33
0.0
  0
SOLID
  5
2682
330
1418
100
AcDbEntity
  8
AM_5
100
AcDbTrace
 10
822.4359040497997
 20
-46.30074591676836
 30
0.0
 11
822.4359040497997
 21
-57.96741258343505
 31
0.0
 12
787.4359040497997
 22
-52.13407925010172
 32
0.0
 13
787.4359040497997
 23
-52.13407925010172
 33
0.0
  0
MTEXT
  5
2683
330
1418
100
AcDbEntity
  8
AM_5
 62
     2
100
AcDbMText
 10
883.1996835773589
 20
-24.63407925010172
 30
0.0
 40
35.0
 41
0.0
 71
     5
 72
     1
  1
10 
 73
     1
 44
1.0
  0
POINT
  5
2684
330
1418
100
AcDbEntity
  8
Defpoints
 62
     0
100
AcDbPoint
 10
777.4359135865433
 20
309.9527354400513
 30
0.0
  0
POINT
  5
2685
330
1418
100
AcDbEntity
  8
Defpoints
 62
     0
100
AcDbPoint
 10
787.4359040497997
 20
188.452720181262
 30
0.0
  0
POINT
  5
2686
330
1418
100
AcDbEntity
  8
Defpoints
 62
     0
100
AcDbPoint
 10
787.4359040497997
 20
-52.13407925010172
 30
0.0
  0
ENDBLK
  5
1425
330
1418
100
AcDbEntity
  8
0
100
AcDbBlockEnd
  0
BLOCK
  5
14D2
330
14C6
100
AcDbEntity
  8
0
100
AcDbBlockBegin
  2
*D13
 70
     1
 10
0.0
 20
0.0
 30
0.0
  3
*D13
  1

  0
LINE
  5
2666
330
14C6
100
AcDbEntity
  8
AM_5
100
AcDbLine
 10
-1322.564086413456
 20
309.9527354400513
 30
0.0
 11
-1322.564086413456
 21
-72.13407925010688
 31
0.0
  0
LINE
  5
2667
330
14C6
100
AcDbEntity
  8
AM_5
100
AcDbLine
 10
-1332.564076876713
 20
188.452720181262
 30
0.0
 11
-1332.564076876713
 21
-72.13407925010693
 31
0.0
  0
LINE
  5
2668
330
14C6
100
AcDbEntity
  8
AM_5
100
AcDbLine
 10
-1287.564086413456
 20
-52.13407925010691
 30
0.0
 11
-1252.564086413457
 21
-52.13407925010691
 31
0.0
  0
LINE
  5
2669
330
14C6
100
AcDbEntity
  8
AM_5
100
AcDbLine
 10
-1367.564076876712
 20
-52.13407925010691
 30
0.0
 11
-1454.09163593183
 21
-52.13407925010691
 31
0.0
  0
LINE
  5
266A
330
14C6
100
AcDbEntity
  8
AM_5
100
AcDbLine
 10
-1322.564086413456
 20
-52.13407925010691
 30
0.0
 11
-1332.564076876713
 21
-52.13407925010691
 31
0.0
  0
SOLID
  5
266B
330
14C6
100
AcDbEntity
  8
AM_5
100
AcDbTrace
 10
-1287.564086413456
 20
-46.30074591677356
 30
0.0
 11
-1287.564086413456
 21
-57.96741258344024
 31
0.0
 12
-1322.564086413456
 22
-52.13407925010691
 32
0.0
 13
-1322.564086413456
 23
-52.13407925010691
 33
0.0
  0
SOLID
  5
266C
330
14C6
100
AcDbEntity
  8
AM_5
100
AcDbTrace
 10
-1367.564076876712
 20
-46.30074591677356
 30
0.0
 11
-1367.564076876712
 21
-57.96741258344024
 31
0.0
 12
-1332.564076876713
 22
-52.13407925010691
 32
0.0
 13
-1332.564076876713
 23
-52.13407925010691
 33
0.0
  0
MTEXT
  5
266D
330
14C6
100
AcDbEntity
  8
AM_5
 62
     2
100
AcDbMText
 10
-1428.327856404272
 20
-24.63407925010689
 30
0.0
 40
35.0
 41
0.0
 71
     5
 72
     1
  1
10
 73
     1
 44
1.0
  0
POINT
  5
266E
330
14C6
100
AcDbEntity
  8
Defpoints
 62
     0
100
AcDbPoint
 10
-1322.564086413456
 20
309.9527354400513
 30
0.0
  0
POINT
  5
266F
330
14C6
100
AcDbEntity
  8
Defpoints
 62
     0
100
AcDbPoint
 10
-1332.564076876713
 20
188.452720181262
 30
0.0
  0
POINT
  5
2670
330
14C6
100
AcDbEntity
  8
Defpoints
 62
     0
100
AcDbPoint
 10
-1332.564076876713
 20
-52.13407925010691
 30
0.0
  0
ENDBLK
  5
14D3
330
14C6
100
AcDbEntity
  8
0
100
AcDbBlockEnd
  0
BLOCK
  5
16BE
330
16B4
100
AcDbEntity
  8
0
100
AcDbBlockBegin
  2
*D14
 70
     1
 10
0.0
 20
0.0
 30
0.0
  3
*D14
  1

  0
LINE
  5
27DB
330
16B4
100
AcDbEntity
  8
AM_5
100
AcDbLine
 10
-1250.064086413456
 20
488.4526724975461
 30
0.0
 11
-1250.064086413456
 21
608.4526724975472
 31
0.0
  0
LINE
  5
27DC
330
16B4
100
AcDbEntity
  8
AM_5
100
AcDbLine
 10
704.9359135865431
 20
488.4526724975461
 30
0.0
 11
704.9359135865431
 21
608.4526724975472
 31
0.0
  0
LINE
  5
27DD
330
16B4
100
AcDbEntity
  8
AM_5
100
AcDbLine
 10
-1215.064086413454
 20
588.4526724975472
 30
0.0
 11
669.9359135865432
 21
588.4526724975472
 31
0.0
  0
SOLID
  5
27DE
330
16B4
100
AcDbEntity
  8
AM_5
100
AcDbTrace
 10
-1215.064086413454
 20
594.2860058308806
 30
0.0
 11
-1215.064086413454
 21
582.6193391642139
 31
0.0
 12
-1250.064086413456
 22
588.4526724975472
 32
0.0
 13
-1250.064086413456
 23
588.4526724975472
 33
0.0
  0
SOLID
  5
27DF
330
16B4
100
AcDbEntity
  8
AM_5
100
AcDbTrace
 10
669.9359135865432
 20
594.2860058308806
 30
0.0
 11
669.9359135865432
 21
582.6193391642139
 31
0.0
 12
704.9359135865431
 22
588.4526724975472
 32
0.0
 13
704.9359135865431
 23
588.4526724975472
 33
0.0
  0
MTEXT
  5
27E0
330
16B4
100
AcDbEntity
  8
AM_5
 62
     2
100
AcDbMText
 10
-272.5640864134563
 20
616.1960752664676
 30
0.0
 40
35.0
 41
0.0
 71
     5
 72
     1
  1
DB min.
 73
     1
 44
1.0
  0
POINT
  5
27E1
330
16B4
100
AcDbEntity
  8
Defpoints
 62
     0
100
AcDbPoint
 10
-1250.064086413456
 20
488.4526724975461
 30
0.0
  0
POINT
  5
27E2
330
16B4
100
AcDbEntity
  8
Defpoints
 62
     0
100
AcDbPoint
 10
704.9359135865431
 20
488.4526724975461
 30
0.0
  0
POINT
  5
27E3
330
16B4
100
AcDbEntity
  8
Defpoints
 62
     0
100
AcDbPoint
 10
704.9359135865431
 20
588.4526724975472
 30
0.0
  0
ENDBLK
  5
16BF
330
16B4
100
AcDbEntity
  8
0
100
AcDbBlockEnd
  0
BLOCK
  5
174C
330
1740
100
AcDbEntity
  8
0
100
AcDbBlockBegin
  2
*D15
 70
     1
 10
0.0
 20
0.0
 30
0.0
  3
*D15
  1

  0
LINE
  5
2687
330
1740
100
AcDbEntity
  8
AM_5
100
AcDbLine
 10
704.9359135865431
 20
488.4526724975461
 30
0.0
 11
704.9359135865431
 21
608.4526734975462
 31
0.0
  0
LINE
  5
2688
330
1740
100
AcDbEntity
  8
AM_5
100
AcDbLine
 10
727.4359135865431
 20
418.4527082603331
 30
0.0
 11
727.4359135865431
 21
608.4526734975462
 31
0.0
  0
LINE
  5
2689
330
1740
100
AcDbEntity
  8
AM_5
100
AcDbLine
 10
669.9359135865432
 20
588.4526734975462
 30
0.0
 11
634.9359135865431
 21
588.4526734975462
 31
0.0
  0
LINE
  5
268A
330
1740
100
AcDbEntity
  8
AM_5
100
AcDbLine
 10
762.4359135865431
 20
588.4526734975462
 30
0.0
 11
895.0244405824077
 21
588.4526734975462
 31
0.0
  0
LINE
  5
268B
330
1740
100
AcDbEntity
  8
AM_5
100
AcDbLine
 10
704.9359135865431
 20
588.4526734975462
 30
0.0
 11
727.4359135865431
 21
588.4526734975462
 31
0.0
  0
SOLID
  5
268C
330
1740
100
AcDbEntity
  8
AM_5
100
AcDbTrace
 10
669.9359135865432
 20
594.2860068308796
 30
0.0
 11
669.9359135865432
 21
582.6193401642127
 31
0.0
 12
704.9359135865431
 22
588.4526734975462
 32
0.0
 13
704.9359135865431
 23
588.4526734975462
 33
0.0
  0
SOLID
  5
268D
330
1740
100
AcDbEntity
  8
AM_5
100
AcDbTrace
 10
762.4359135865431
 20
594.2860068308796
 30
0.0
 11
762.4359135865431
 21
582.6193401642127
 31
0.0
 12
727.4359135865431
 22
588.4526734975462
 32
0.0
 13
727.4359135865431
 23
588.4526734975462
 33
0.0
  0
MTEXT
  5
268E
330
1740
100
AcDbEntity
  8
AM_5
 62
     2
100
AcDbMText
 10
846.2301770844756
 20
618.581118379436
 30
0.0
 40
35.0
 41
0.0
 71
     5
 72
     1
  1
22,5
 73
     1
 44
1.0
  0
POINT
  5
268F
330
1740
100
AcDbEntity
  8
Defpoints
 62
     0
100
AcDbPoint
 10
704.9359135865431
 20
488.4526724975461
 30
0.0
  0
POINT
  5
2690
330
1740
100
AcDbEntity
  8
Defpoints
 62
     0
100
AcDbPoint
 10
727.4359135865431
 20
418.4527082603331
 30
0.0
  0
POINT
  5
2691
330
1740
100
AcDbEntity
  8
Defpoints
 62
     0
100
AcDbPoint
 10
727.4359135865431
 20
588.4526734975462
 30
0.0
  0
ENDBLK
  5
174D
330
1740
100
AcDbEntity
  8
0
100
AcDbBlockEnd
  0
BLOCK
  5
17F0
330
17E4
100
AcDbEntity
  8
0
100
AcDbBlockBegin
  2
*D16
 70
     1
 10
0.0
 20
0.0
 30
0.0
  3
*D16
  1

  0
LINE
  5
2671
330
17E4
100
AcDbEntity
  8
AM_5
100
AcDbLine
 10
-1250.064086413456
 20
488.4526724975461
 30
0.0
 11
-1250.064086413456
 21
608.4526724975462
 31
0.0
  0
LINE
  5
2672
330
17E4
100
AcDbEntity
  8
AM_5
100
AcDbLine
 10
-1272.564086413455
 20
418.4527082603331
 30
0.0
 11
-1272.564086413455
 21
608.4526724975462
 31
0.0
  0
LINE
  5
2673
330
17E4
100
AcDbEntity
  8
AM_5
100
AcDbLine
 10
-1215.064086413454
 20
588.4526724975462
 30
0.0
 11
-1180.064086413455
 21
588.4526724975462
 31
0.0
  0
LINE
  5
2674
330
17E4
100
AcDbEntity
  8
AM_5
100
AcDbLine
 10
-1307.564086413456
 20
588.4526724975462
 30
0.0
 11
-1440.15261340932
 21
588.4526724975462
 31
0.0
  0
LINE
  5
2675
330
17E4
100
AcDbEntity
  8
AM_5
100
AcDbLine
 10
-1250.064086413456
 20
588.4526724975462
 30
0.0
 11
-1272.564086413455
 21
588.4526724975462
 31
0.0
  0
SOLID
  5
2676
330
17E4
100
AcDbEntity
  8
AM_5
100
AcDbTrace
 10
-1215.064086413454
 20
594.2860058308796
 30
0.0
 11
-1215.064086413454
 21
582.6193391642127
 31
0.0
 12
-1250.064086413456
 22
588.4526724975462
 32
0.0
 13
-1250.064086413456
 23
588.4526724975462
 33
0.0
  0
SOLID
  5
2677
330
17E4
100
AcDbEntity
  8
AM_5
100
AcDbTrace
 10
-1307.564086413456
 20
594.2860058308796
 30
0.0
 11
-1307.564086413456
 21
582.6193391642127
 31
0.0
 12
-1272.564086413455
 22
588.4526724975462
 32
0.0
 13
-1272.564086413455
 23
588.4526724975462
 33
0.0
  0
MTEXT
  5
2678
330
17E4
100
AcDbEntity
  8
AM_5
 62
     2
100
AcDbMText
 10
-1391.358349911389
 20
618.581117379436
 30
0.0
 40
35.0
 41
0.0
 71
     5
 72
     1
  1
22,5
 73
     1
 44
1.0
  0
POINT
  5
2679
330
17E4
100
AcDbEntity
  8
Defpoints
 62
     0
100
AcDbPoint
 10
-1250.064086413456
 20
488.4526724975461
 30
0.0
  0
POINT
  5
267A
330
17E4
100
AcDbEntity
  8
Defpoints
 62
     0
100
AcDbPoint
 10
-1272.564086413455
 20
418.4527082603331
 30
0.0
  0
POINT
  5
267B
330
17E4
100
AcDbEntity
  8
Defpoints
 62
     0
100
AcDbPoint
 10
-1272.564086413455
 20
588.4526724975462
 30
0.0
  0
ENDBLK
  5
17F1
330
17E4
100
AcDbEntity
  8
0
100
AcDbBlockEnd
  0
BLOCK
  5
18D1
330
18D0
100
AcDbEntity
  8
0
100
AcDbBlockBegin
  2
GENZOOSWGF6Y1
 70
     0
 10
0.0
 20
0.0
 30
0.0
  3
GENZOOSWGF6Y1
  1

  0
LINE
  5
18D2
330
18D0
100
AcDbEntity
  8
Torblatt-AM_0
100
AcDbLine
 10
-151.2273550826842
 20
16.49999618530296
 30
0.0
 11
-84.81760025024438
 21
16.49999618530296
 31
0.0
  0
LINE
  5
18D3
330
18D0
100
AcDbEntity
  8
Torblatt-AM_0
100
AcDbLine
 10
-150.8043884055046
 20
19.9999809265139
 30
0.0
 11
-84.81760025024438
 21
19.9999809265139
 31
0.0
  0
LINE
  5
18D4
330
18D0
100
AcDbEntity
  8
Torblatt-AM_0
100
AcDbLine
 10
-145.9210892081974
 20
-42.99998283386228
 30
0.0
 11
-37.3527526855471
 21
-42.99998283386228
 31
0.0
  0
LINE
  5
18D5
330
18D0
100
AcDbEntity
  8
Torblatt-AM_0
100
AcDbLine
 10
-37.3527526855471
 20
38.99997472763084
 30
0.0
 11
-147.0406908670634
 21
38.99997472763084
 31
0.0
  0
ARC
  5
18D6
330
18D0
100
AcDbEntity
  8
Torblatt-AM_0
100
AcDbCircle
 10
-46.31751677691136
 20
18.24998855590092
 30
0.0
 40
2.609637321563587
100
AcDbArc
 50
80.64380627089519
 51
279.3561937291047
  0
ARC
  5
18D7
330
18D0
100
AcDbEntity
  8
Torblatt-AM_0
100
AcDbCircle
 10
-72.13513425225437
 20
20.99991783949735
 30
0.0
 40
1.749942158434936
100
AcDbArc
 50
269.9990799217744
 51
348.2651342078447
  0
ARC
  5
18D8
330
18D0
100
AcDbEntity
  8
Torblatt-AM_0
100
AcDbCircle
 10
-84.81754064400456
 20
18.24998855595026
 30
0.0
 40
0.9999871272152674
100
AcDbArc
 50
90.00341522993677
 51
269.9965847700631
  0
ARC
  5
18D9
330
18D0
100
AcDbEntity
  8
Torblatt-AM_0
100
AcDbCircle
 10
-84.81760025014068
 20
18.24998855589615
 30
0.0
 40
1.74999237061769
100
AcDbArc
 50
90.00000000339369
 51
269.9999999966063
  0
LINE
  5
18DA
330
18D0
100
AcDbEntity
  8
Zarge-AM_0
100
AcDbLine
 10
-27.99994945526123
 20
38.99997472763084
 30
0.0
 11
-27.99994945526123
 21
7.664859294891357
 31
0.0
  0
LINE
  5
18DB
330
18D0
100
AcDbEntity
  8
Zarge-AM_0
100
AcDbLine
 10
-25.999975204468
 20
38.99997472763084
 30
0.0
 11
-25.999975204468
 21
6.982147693634258
 31
0.0
  0
ARC
  5
18DC
330
18D0
100
AcDbEntity
  8
Torblatt-AM_0
100
AcDbCircle
 10
-46.3175584301282
 20
18.25001835823784
 30
0.0
 40
3.359646655792845
100
AcDbArc
 50
80.64272556837236
 51
279.3572744316275
  0
LINE
  5
18DD
330
18D0
100
AcDbEntity
  8
AM_0
100
AcDbLine
 10
59.99999046325661
 20
42.99998283386228
 30
0.0
 11
59.99999046325661
 21
-139.7925747092036
 31
0.0
  0
LINE
  5
18DE
330
18D0
100
AcDbEntity
  8
AM_7
  6
AM_DIN_G_W050x2
100
AcDbLine
 10
0.0
 20
72.99998283386229
 30
0.0
 11
0.0
 21
-72.99998283386229
 31
0.0
1001
GENIUS_GENODEF_13
1002
{
1000
HIER
1070
     0
1002
}
1002
{
1000
MANEDIT
1070
     0
1002
}
1002
{
1000
NOSEL
1070
     0
1002
}
1002
{
1000
BEHIND
1070
     0
1002
}
1002
{
1000
REACTOR
1002
}
1001
GENIUS_GENOBJ-N-CEN_13
1002
{
1000
OWNER
1000
GEN
1002
}
  0
HATCH
  5
18DF
330
18D0
100
AcDbEntity
  8
AM_8
100
AcDbHatch
 10
0.0
 20
0.0
 30
0.0
210
0.0
220
0.0
230
1.0
  2
_U
 70
     0
 71
     0
 91
        1
 92
        0
 93
        5
 72
     2
 10
0.0
 20
0.0
 40
152.1248263743273
 50
-70.0544382063305
 51
66.77063825113252
 73
     0
 72
     1
 10
51.89391040467899
 20
142.9999470710754
 11
-22.5
 21
142.9999470710754
 72
     1
 10
-22.5
 20
142.9999470710754
 11
-22.5
 21
42.9999828338623
 72
     1
 10
-22.5
 20
42.99998283386228
 11
59.99999046325661
 21
42.99998283386228
 72
     1
 10
59.99999046325661
 20
42.99998283386228
 11
59.99999046325661
 21
-139.7925747092036
 97
        0
 75
     0
 76
     0
 52
45.0
 41
25.0
 77
     0
 78
     1
 53
45.0
 43
-786.6017450227066
 44
-589.6515621619697
 45
-17.67766952966367
 46
17.67766952966367
 79
     0
 98
        1
 10
-1342.359545086655
 20
-359.8763027264581
1001
GENIUS_GENODEF_13
1002
{
1000
HIER
1070
     0
1002
}
1002
{
1000
MANEDIT
1070
     0
1002
}
1002
{
1000
NOSEL
1070
     0
1002
}
1002
{
1000
BEHIND
1070
     0
1002
}
1002
{
1000
REACTOR
1002
}
1001
GENIUS_GENOBJ-N-HTC_13
1002
{
1000
OWNER
1000
GEN
1002
}
1001
GENIUS_GENHATCH_13
1002
{
1000
DATA
1040
45.0
1042
2.5
1000
_U
1070
     0
1011
29.51882064046936
1021
103.3107629777025
1031
0.0
1002
}
1002
{
1000
UCS
1010
0.0
1020
0.0
1030
0.0
1010
1.0
1020
0.0
1030
0.0
1010
0.0
1020
1.0
1030
0.0
1002
}
  0
LINE
  5
18E0
330
18D0
100
AcDbEntity
  8
Zarge-AM_0
100
AcDbLine
 10
-24.00000095367454
 20
-41.00000858306862
 30
0.0
 11
46.00005149841286
 21
-41.00000858306862
 31
0.0
  0
LINE
  5
18E1
330
18D0
100
AcDbEntity
  8
Zarge-AM_0
100
AcDbLine
 10
-24.00000095367454
 20
-42.99998283386228
 30
0.0
 11
46.00005149841286
 21
-42.99998283386228
 31
0.0
  0
LINE
  5
18E2
330
18D0
100
AcDbEntity
  8
Abdeckleiste-AM_0
100
AcDbLine
 10
-58.99996757507347
 20
-42.99998283386228
 30
0.0
 11
-15.99998474121115
 21
-42.99998283386228
 31
0.0
  0
LINE
  5
18E3
330
18D0
100
AcDbEntity
  8
Abdeckleiste-AM_0
100
AcDbLine
 10
-58.99996757507347
 20
-45.00001668930052
 30
0.0
 11
-15.99998474121115
 21
-45.00001668930052
 31
0.0
  0
LINE
  5
18E4
330
18D0
100
AcDbEntity
  8
Zarge-AM_0
100
AcDbLine
 10
-27.99994945526123
 20
-7.664859294891357
 30
0.0
 11
-27.99994945526123
 21
-38.99997472763038
 31
0.0
  0
LINE
  5
18E5
330
18D0
100
AcDbEntity
  8
Zarge-AM_0
100
AcDbLine
 10
-25.999975204468
 20
-6.982147693633803
 30
0.0
 11
-25.999975204468
 21
-38.99997472763038
 31
0.0
  0
LINE
  5
18E6
330
18D0
100
AcDbEntity
  8
Torblatt-AM_0
100
AcDbLine
 10
-35.56759357452415
 20
13.75001668930053
 30
0.0
 11
-35.56759357452415
 21
-41.21476411819435
 31
0.0
  0
LINE
  5
18E7
330
18D0
100
AcDbEntity
  8
Torblatt-AM_0
100
AcDbLine
 10
-36.31753921508812
 20
13.6035680770874
 30
0.0
 11
-36.31753921508812
 21
-41.21476411819435
 31
0.0
  0
LINE
  5
18E8
330
18D0
100
AcDbEntity
  8
Torblatt-AM_0
100
AcDbLine
 10
-71.15192413330078
 20
15.68222045898458
 30
0.0
 11
-60.53848266601585
 21
-41.58240556716964
 31
0.0
  0
LINE
  5
18E9
330
18D0
100
AcDbEntity
  8
Torblatt-AM_0
100
AcDbLine
 10
-70.41449546814011
 20
15.81889390945434
 30
0.0
 11
-59.80105400085472
 21
-41.44573211669899
 31
0.0
  0
LINE
  5
18EA
330
18D0
100
AcDbEntity
  8
Torblatt-AM_0
100
AcDbLine
 10
-37.3527526855471
 20
-42.24997758865399
 30
0.0
 11
-58.83402824401855
 21
-42.24997758865399
 31
0.0
  0
ARC
  5
18EB
330
18D0
100
AcDbEntity
  8
Torblatt-AM_0
100
AcDbCircle
 10
-58.8341601689267
 20
-41.26663699236267
 30
0.0
 40
0.9833406051726591
100
AcDbArc
 50
190.4938094427351
 51
270.007686797882
  0
LINE
  5
18EC
330
18D0
100
AcDbEntity
  8
Abdeckleiste-AM_0
100
AcDbLine
 10
-58.99996757507347
 20
-45.00001668930052
 30
0.0
 11
-58.99996757507347
 21
-42.99998283386228
 31
0.0
  0
ARC
  5
18ED
330
18D0
100
AcDbEntity
  8
Torblatt-AM_0
100
AcDbCircle
 10
-58.83412524486516
 20
-41.26661717130536
 30
0.0
 40
1.733365665401873
100
AcDbArc
 50
190.4968935154436
 51
270.0032063281509
  0
ARC
  5
18EE
330
18D0
100
AcDbEntity
  8
Zarge-AM_0
100
AcDbCircle
 10
-23.99994785044531
 20
-38.99998122976967
 30
0.0
 40
2.00002735403336
100
AcDbArc
 50
180.0
 51
269.9984787253483
  0
ARC
  5
18EF
330
18D0
100
AcDbEntity
  8
Torblatt-AM_0
100
AcDbCircle
 10
-37.35286067100854
 20
-41.21465613225359
 30
0.0
 40
1.035321462031825
100
AcDbArc
 50
270.0059760291243
 51
0.0
  0
ARC
  5
18F0
330
18D0
100
AcDbEntity
  8
Zarge-AM_0
100
AcDbCircle
 10
-23.99999650287553
 20
-39.0000298810521
 30
0.0
 40
3.999952952812778
100
AcDbArc
 50
180.0
 51
269.999936246248
  0
ARC
  5
18F1
330
18D0
100
AcDbEntity
  8
Torblatt-AM_0
100
AcDbCircle
 10
-37.35272177503178
 20
-41.21485463128192
 30
0.0
 40
1.78512820284811
100
AcDbArc
 50
269.9990078908243
 51
0.0
  0
LINE
  5
18F2
330
18D0
100
AcDbEntity
  8
Torblatt-AM_0
100
AcDbLine
 10
-70.24235725402832
 20
14.89037275314353
 30
0.0
 11
-46.31752967834517
 21
14.89037275314353
 31
0.0
  0
LINE
  5
18F3
330
18D0
100
AcDbEntity
  8
Torblatt-AM_0
100
AcDbLine
 10
-36.31753921508812
 20
13.6035680770874
 30
0.0
 11
-70.00381946563766
 21
13.6035680770874
 31
0.0
  0
ARC
  5
18F4
330
18D0
100
AcDbEntity
  8
Torblatt-AM_0
100
AcDbCircle
 10
-72.1351593694867
 20
15.50004451790914
 30
0.0
 40
1.749956912604758
100
AcDbArc
 50
10.49817103726904
 51
90.00009770084906
  0
ARC
  5
18F5
330
18D0
100
AcDbEntity
  8
Torblatt-AM_0
100
AcDbCircle
 10
-72.13512443140939
 20
15.50006435181217
 30
0.0
 40
0.9999318344674483
100
AcDbArc
 50
10.49609579025613
 51
90.00217292476101
  0
LINE
  5
18F6
330
18D0
100
AcDbEntity
  8
Torblatt-AM_0
100
AcDbLine
 10
-72.13516235351582
 20
17.25000143051147
 30
0.0
 11
-84.81760025024438
 21
17.25000143051147
 31
0.0
  0
LINE
  5
18F7
330
18D0
100
AcDbEntity
  8
Torblatt-AM_0
100
AcDbLine
 10
-72.13516235351582
 20
16.49999618530296
 30
0.0
 11
-84.81760025024438
 21
16.49999618530296
 31
0.0
  0
ARC
  5
18F8
330
18D0
100
AcDbEntity
  8
Torblatt-AM_0
100
AcDbCircle
 10
-37.5735427001216
 20
16.04407875891456
 30
0.0
 40
0.2456452640195875
100
AcDbArc
 50
22.10770246002448
 51
113.2336988161265
  0
ARC
  5
18F9
330
18D0
100
AcDbEntity
  8
Torblatt-AM_0
100
AcDbCircle
 10
-37.57353624326992
 20
16.04415888978335
 30
0.0
 40
0.9955631331754151
100
AcDbArc
 50
22.09515197550345
 51
106.235510851798
  0
LINE
  5
18FA
330
18D0
100
AcDbEntity
  8
Torblatt-AM_0
100
AcDbLine
 10
-45.89326381683349
 20
15.67506790161155
 30
0.0
 11
-37.85188198089645
 21
17.00001955032301
 31
0.0
  0
ARC
  5
18FB
330
18D0
100
AcDbEntity
  8
Zarge-AM_0
100
AcDbCircle
 10
-17.49962516258824
 20
-0.000000000005457
 30
0.0
 40
11.00028805305958
100
AcDbArc
 50
140.6004771388866
 51
219.3995228611171
  0
ARC
  5
18FC
330
18D0
100
AcDbEntity
  8
Zarge-AM_0
100
AcDbCircle
 10
-17.50023339365066
 20
-0.0000000000079581
 30
0.0
 40
12.99977328206327
100
AcDbArc
 50
143.8703188787733
 51
216.1296811212265
  0
LINE
  5
18FD
330
18D0
100
AcDbEntity
  8
Torblatt-AM_0
100
AcDbLine
 10
-45.77131271362327
 20
14.93507623672508
 30
0.0
 11
-37.67044544219993
 21
16.26980304718017
 31
0.0
  0
LINE
  5
18FE
330
18D0
100
AcDbEntity
  8
Torblatt-AM_0
100
AcDbLine
 10
-37.34595775604247
 20
16.13652706146263
 30
0.0
 11
-36.31753921508812
 21
13.6035680770874
 31
0.0
  0
LINE
  5
18FF
330
18D0
100
AcDbEntity
  8
Torblatt-AM_0
100
AcDbLine
 10
-36.6510868072512
 20
16.41863584518453
 30
0.0
 11
-35.56759357452415
 21
13.75001668930053
 31
0.0
  0
LINE
  5
1900
330
18D0
100
AcDbEntity
  8
Abdeckleiste-AM_0
100
AcDbLine
 10
-15.99998474121115
 20
-45.00001668930052
 30
0.0
 11
-15.99998474121115
 21
-42.99998283386228
 31
0.0
  0
ARC
  5
1901
330
18D0
100
AcDbEntity
  8
Zarge-AM_0
100
AcDbCircle
 10
45.99999839603539
 20
-31.99999874221066
 30
0.0
 40
2.000027353181563
100
AcDbArc
 50
0.0
 51
89.99847874974902
  0
ARC
  5
1902
330
18D0
100
AcDbEntity
  8
Zarge-AM_0
100
AcDbCircle
 10
45.99999839569839
 20
-38.99998123019303
 30
0.0
 40
2.000027353580655
100
AcDbArc
 50
270.0015212598979
 51
0.0
  0
LINE
  5
1903
330
18D0
100
AcDbEntity
  8
Zarge-AM_0
100
AcDbLine
 10
50.0
 20
-38.99997472763038
 30
0.0
 11
50.0
 21
-32.00000524520851
 31
0.0
  0
LINE
  5
1904
330
18D0
100
AcDbEntity
  8
Zarge-AM_0
100
AcDbLine
 10
48.00002574920632
 20
-38.99997472763038
 30
0.0
 11
48.00002574920632
 21
-32.00000524520851
 31
0.0
  0
ARC
  5
1905
330
18D0
100
AcDbEntity
  8
Zarge-AM_0
100
AcDbCircle
 10
46.00025053628882
 20
-39.00023336669846
 30
0.0
 40
3.999749472116156
100
AcDbArc
 50
269.9971488138593
 51
0.0
  0
ARC
  5
1906
330
18D0
100
AcDbEntity
  8
Zarge-AM_0
100
AcDbCircle
 10
46.00014879683317
 20
-31.99984834404812
 30
0.0
 40
3.999851206254098
100
AcDbArc
 50
0.0
 51
90.00139374905259
  0
LINE
  5
1907
330
18D0
100
AcDbEntity
  8
Zarge-AM_0
100
AcDbLine
 10
40.00215530395485
 20
-29.99997138977028
 30
0.0
 11
40.00215530395485
 21
-27.99999713897749
 31
0.0
  0
LINE
  5
1908
330
18D0
100
AcDbEntity
  8
Zarge-AM_0
100
AcDbLine
 10
46.00005149841286
 20
-29.99997138977028
 30
0.0
 11
40.00215530395485
 21
-29.99997138977028
 31
0.0
  0
LINE
  5
1909
330
18D0
100
AcDbEntity
  8
Zarge-AM_0
100
AcDbLine
 10
46.00005149841286
 20
-27.99999713897749
 30
0.0
 11
40.00215530395485
 21
-27.99999713897749
 31
0.0
  0
LINE
  5
190A
330
18D0
100
AcDbEntity
  8
Zarge-AM_0
100
AcDbLine
 10
46.00005149841286
 20
42.99998283386228
 30
0.0
 11
-24.00000095367454
 21
42.99998283386228
 31
0.0
  0
LINE
  5
190B
330
18D0
100
AcDbEntity
  8
Zarge-AM_0
100
AcDbLine
 10
46.00005149841286
 20
41.00000858306907
 30
0.0
 11
-24.00000095367454
 21
41.00000858306907
 31
0.0
  0
LINE
  5
190C
330
18D0
100
AcDbEntity
  8
AM_0
100
AcDbLine
 10
-22.5
 20
42.99998283386228
 30
0.0
 11
59.99999046325661
 21
42.99998283386228
 31
0.0
  0
LINE
  5
190D
330
18D0
100
AcDbEntity
  8
AM_0
100
AcDbLine
 10
-22.5
 20
142.9999470710754
 30
0.0
 11
-22.5
 21
42.99998283386228
 31
0.0
  0
LINE
  5
190E
330
18D0
100
AcDbEntity
  8
Torblatt-AM_0
100
AcDbLine
 10
-46.31752967834517
 20
21.60966396331787
 30
0.0
 11
-70.15283107757614
 21
21.60966396331787
 31
0.0
  0
LINE
  5
190F
330
18D0
100
AcDbEntity
  8
Torblatt-AM_0
100
AcDbLine
 10
-37.3527526855471
 20
38.25002908706688
 30
0.0
 11
-64.67206478118917
 21
38.25002908706688
 31
0.0
  0
LINE
  5
1910
330
18D0
100
AcDbEntity
  8
Torblatt-AM_0
100
AcDbLine
 10
-36.31753921508812
 20
22.896468639374
 30
0.0
 11
-69.79436874389671
 21
22.896468639374
 31
0.0
  0
ARC
  5
1911
330
18D0
100
AcDbEntity
  8
Torblatt-AM_0
100
AcDbCircle
 10
-64.67204886856075
 20
37.10446708561585
 30
0.0
 40
1.145562001561542
100
AcDbArc
 50
90.00079587700362
 51
175.9890392631401
  0
ARC
  5
1912
330
18D0
100
AcDbEntity
  8
Torblatt-AM_0
100
AcDbCircle
 10
-64.67212161953057
 20
37.10448899038921
 30
0.0
 40
1.895485738093709
100
AcDbArc
 50
89.99828191950808
 51
173.412949091888
  0
ARC
  5
1913
330
18D0
100
AcDbEntity
  8
Torblatt-AM_0
100
AcDbCircle
 10
-72.13525120381177
 20
21.00006518286295
 30
0.0
 40
1.000084260310954
100
AcDbArc
 50
270.0050903180588
 51
349.4966409502193
  0
LINE
  5
1914
330
18D0
100
AcDbEntity
  8
Torblatt-AM_0
100
AcDbLine
 10
-65.81480503082321
 20
37.18459606170677
 30
0.0
 11
-70.42176723480223
 21
20.64400911331198
 31
0.0
  0
LINE
  5
1915
330
18D0
100
AcDbEntity
  8
Torblatt-AM_0
100
AcDbLine
 10
-66.55509471893356
 20
37.32192516326858
 30
0.0
 11
-71.15192413330078
 21
20.81775665283225
 31
0.0
  0
LINE
  5
1916
330
18D0
100
AcDbEntity
  8
Torblatt-AM_0
100
AcDbLine
 10
-72.13516235351582
 20
19.9999809265139
 30
0.0
 11
-84.81760025024438
 21
19.9999809265139
 31
0.0
  0
LINE
  5
1917
330
18D0
100
AcDbEntity
  8
Torblatt-AM_0
100
AcDbLine
 10
-72.13516235351582
 20
19.24997568130516
 30
0.0
 11
-84.81760025024438
 21
19.24997568130516
 31
0.0
  0
ARC
  5
1918
330
18D0
100
AcDbEntity
  8
Zarge-AM_0
100
AcDbCircle
 10
-23.99994785135412
 20
38.99998123083992
 30
0.0
 40
2.000027353124436
100
AcDbArc
 50
90.00152124861605
 51
180.0
  0
ARC
  5
1919
330
18D0
100
AcDbEntity
  8
Torblatt-AM_0
100
AcDbCircle
 10
-37.35286066703179
 20
37.21470763937531
 30
0.0
 40
1.035321453322715
100
AcDbArc
 50
0.0
 51
89.99402419090447
  0
LINE
  5
191A
330
18D0
100
AcDbEntity
  8
Torblatt-AM_0
100
AcDbLine
 10
-36.31753921508812
 20
22.896468639374
 30
0.0
 11
-36.31753921508812
 21
37.21475601196289
 31
0.0
  0
LINE
  5
191B
330
18D0
100
AcDbEntity
  8
Torblatt-AM_0
100
AcDbLine
 10
-36.6510868072512
 20
20.0813412666323
 30
0.0
 11
-35.56759357452415
 21
22.75002002716064
 31
0.0
  0
LINE
  5
191C
330
18D0
100
AcDbEntity
  8
Torblatt-AM_0
100
AcDbLine
 10
-35.56759357452415
 20
22.75002002716064
 30
0.0
 11
-35.56759357452415
 21
37.21475601196289
 31
0.0
  0
LINE
  5
191D
330
18D0
100
AcDbEntity
  8
Torblatt-AM_0
100
AcDbLine
 10
-37.34595775604247
 20
20.36345005035398
 30
0.0
 11
-36.31753921508812
 21
22.896468639374
 31
0.0
  0
ARC
  5
191E
330
18D0
100
AcDbEntity
  8
Torblatt-AM_0
100
AcDbCircle
 10
-37.57347256811704
 20
20.45582850736491
 30
0.0
 40
0.2455540048097366
100
AcDbArc
 50
246.7393488369898
 51
337.9012380634542
  0
ARC
  5
191F
330
18D0
100
AcDbEntity
  8
Torblatt-AM_0
100
AcDbCircle
 10
-37.57344942335726
 20
20.45573688870216
 30
0.0
 40
0.99545209699662
100
AcDbArc
 50
253.7574232752624
 51
337.9073059215052
  0
ARC
  5
1920
330
18D0
100
AcDbEntity
  8
Torblatt-AM_0
100
AcDbCircle
 10
-37.35272177520664
 20
37.21484652474828
 30
0.0
 40
1.78512820315023
100
AcDbArc
 50
0.0
 51
90.00099210356081
  0
ARC
  5
1921
330
18D0
100
AcDbEntity
  8
Zarge-AM_0
100
AcDbCircle
 10
-23.99999650290942
 20
39.00002988119558
 30
0.0
 40
3.999952952732106
100
AcDbArc
 50
90.0000637532633
 51
180.0
  0
LINE
  5
1922
330
18D0
100
AcDbEntity
  8
Torblatt-AM_0
100
AcDbLine
 10
-45.77131271362327
 20
21.56496047973631
 30
0.0
 11
-37.67044544219993
 21
20.230233669281
 31
0.0
  0
LINE
  5
1923
330
18D0
100
AcDbEntity
  8
Torblatt-AM_0
100
AcDbLine
 10
-45.89326381683349
 20
20.8249092102053
 30
0.0
 11
-37.85188198089645
 21
19.50001716613792
 31
0.0
  0
LINE
  5
1924
330
18D0
100
AcDbEntity
  8
Zarge-AM_0
100
AcDbLine
 10
50.0
 20
32.00000524520897
 30
0.0
 11
50.0
 21
38.99997472763084
 31
0.0
  0
ARC
  5
1925
330
18D0
100
AcDbEntity
  8
Zarge-AM_0
100
AcDbCircle
 10
45.99999839572979
 20
38.99998123038495
 30
0.0
 40
2.000027353487094
100
AcDbArc
 50
0.0
 51
89.99847874099449
  0
LINE
  5
1926
330
18D0
100
AcDbEntity
  8
Zarge-AM_0
100
AcDbLine
 10
48.00002574920632
 20
32.00000524520897
 30
0.0
 11
48.00002574920632
 21
38.99997472763084
 31
0.0
  0
ARC
  5
1927
330
18D0
100
AcDbEntity
  8
Zarge-AM_0
100
AcDbCircle
 10
45.9999983964517
 20
31.9999987417741
 30
0.0
 40
2.000027352765186
100
AcDbArc
 50
270.0015212383243
 51
0.0
  0
ARC
  5
1928
330
18D0
100
AcDbEntity
  8
Zarge-AM_0
100
AcDbCircle
 10
46.00014879709259
 20
31.99984834376163
 30
0.0
 40
3.999851205984878
100
AcDbArc
 50
269.998606247228
 51
0.0
  0
ARC
  5
1929
330
18D0
100
AcDbEntity
  8
Zarge-AM_0
100
AcDbCircle
 10
46.00025053676154
 20
39.00023336728145
 30
0.0
 40
3.999749471600845
100
AcDbArc
 50
0.0
 51
90.00285119291479
  0
LINE
  5
192A
330
18D0
100
AcDbEntity
  8
Zarge-AM_0
100
AcDbLine
 10
40.00215530395485
 20
27.99999713897705
 30
0.0
 11
40.00215530395485
 21
29.99997138977073
 31
0.0
  0
LINE
  5
192B
330
18D0
100
AcDbEntity
  8
Zarge-AM_0
100
AcDbLine
 10
40.00215530395485
 20
29.99997138977073
 30
0.0
 11
46.00005149841286
 21
29.99997138977073
 31
0.0
  0
LINE
  5
192C
330
18D0
100
AcDbEntity
  8
Zarge-AM_0
100
AcDbLine
 10
40.00215530395485
 20
27.99999713897705
 30
0.0
 11
46.00005149841286
 21
27.99999713897705
 31
0.0
  0
LINE
  5
192D
330
18D0
100
AcDbEntity
  8
0
  6
Continuous
 62
     7
100
AcDbLine
 10
0.4243135452270508
 20
142.9999470710754
 30
0.0
 11
0.0000476837158203
 21
142.5756812095636
 31
0.0
  0
ENDBLK
  5
192E
330
18D0
100
AcDbEntity
  8
0
100
AcDbBlockEnd
  0
BLOCK
  5
1968
330
195C
100
AcDbEntity
  8
0
100
AcDbBlockBegin
  2
*D18
 70
     1
 10
0.0
 20
0.0
 30
0.0
  3
*D18
  1

  0
LINE
  5
2605
330
195C
100
AcDbEntity
  8
AM_5
100
AcDbLine
 10
-1041.963479130439
 20
-840.190228732772
 30
0.0
 11
-1041.963479130439
 21
-612.956761451629
 31
0.0
  0
LINE
  5
2606
330
195C
100
AcDbEntity
  8
AM_5
100
AcDbLine
 10
-1086.963479130439
 20
-700.1903002583458
 30
0.0
 11
-1086.963479130439
 21
-612.956761451629
 31
0.0
  0
LINE
  5
2607
330
195C
100
AcDbEntity
  8
AM_5
100
AcDbLine
 10
-1006.96347913044
 20
-632.9567614516291
 30
0.0
 11
-971.9634791304418
 21
-632.9567614516291
 31
0.0
  0
LINE
  5
2608
330
195C
100
AcDbEntity
  8
AM_5
100
AcDbLine
 10
-1121.96347913044
 20
-632.9567614516291
 30
0.0
 11
-1254.552006126306
 21
-632.9567614516291
 31
0.0
  0
LINE
  5
2609
330
195C
100
AcDbEntity
  8
AM_5
100
AcDbLine
 10
-1041.963479130439
 20
-632.9567614516291
 30
0.0
 11
-1086.963479130439
 21
-632.9567614516291
 31
0.0
  0
SOLID
  5
260A
330
195C
100
AcDbEntity
  8
AM_5
100
AcDbTrace
 10
-1006.96347913044
 20
-627.1234281182954
 30
0.0
 11
-1006.96347913044
 21
-638.7900947849624
 31
0.0
 12
-1041.963479130439
 22
-632.9567614516291
 32
0.0
 13
-1041.963479130439
 23
-632.9567614516291
 33
0.0
  0
SOLID
  5
260B
330
195C
100
AcDbEntity
  8
AM_5
100
AcDbTrace
 10
-1121.96347913044
 20
-627.1234281182954
 30
0.0
 11
-1121.96347913044
 21
-638.7900947849624
 31
0.0
 12
-1086.963479130439
 22
-632.9567614516291
 32
0.0
 13
-1086.963479130439
 23
-632.9567614516291
 33
0.0
  0
MTEXT
  5
260C
330
195C
100
AcDbEntity
  8
AM_5
 62
     2
100
AcDbMText
 10
-1205.757742628374
 20
-602.8283165697391
 30
0.0
 40
35.0
 41
0.0
 71
     5
 72
     1
  1
22,5
 73
     1
 44
1.0
  0
POINT
  5
260D
330
195C
100
AcDbEntity
  8
Defpoints
 62
     0
100
AcDbPoint
 10
-1041.963479130439
 20
-840.190228732772
 30
0.0
  0
POINT
  5
260E
330
195C
100
AcDbEntity
  8
Defpoints
 62
     0
100
AcDbPoint
 10
-1086.963479130439
 20
-700.1903002583458
 30
0.0
  0
POINT
  5
260F
330
195C
100
AcDbEntity
  8
Defpoints
 62
     0
100
AcDbPoint
 10
-1086.963479130439
 20
-632.9567614516291
 30
0.0
  0
ENDBLK
  5
1969
330
195C
100
AcDbEntity
  8
0
100
AcDbBlockEnd
  0
BLOCK
  5
1A0A
330
1A00
100
AcDbEntity
  8
0
100
AcDbBlockBegin
  2
*D19
 70
     1
 10
0.0
 20
0.0
 30
0.0
  3
*D19
  1

  0
LINE
  5
27B9
330
1A00
100
AcDbEntity
  8
AM_5
100
AcDbLine
 10
-1086.963479130439
 20
-700.1903002583458
 30
0.0
 11
-1086.963479130439
 21
-518.1029321381221
 31
0.0
  0
LINE
  5
27BA
330
1A00
100
AcDbEntity
  8
AM_5
100
AcDbLine
 10
-1121.96347913044
 20
-538.1029321381221
 30
0.0
 11
-1376.168805544003
 21
-538.1029321381221
 31
0.0
  0
SOLID
  5
27BB
330
1A00
100
AcDbEntity
  8
AM_5
100
AcDbTrace
 10
-1121.96347913044
 20
-532.2695988047886
 30
0.0
 11
-1121.96347913044
 21
-543.9362654714555
 31
0.0
 12
-1086.963479130439
 22
-538.1029321381221
 32
0.0
 13
-1086.963479130439
 23
-538.1029321381221
 33
0.0
  0
MTEXT
  5
27BC
330
1A00
100
AcDbEntity
  8
AM_5
 62
     2
100
AcDbMText
 10
-1297.918805544004
 20
-482.8595293692016
 30
0.0
 40
35.0
 41
0.0
 71
     5
 72
     1
  1
DB min.
 73
     1
 44
1.0
  0
POINT
  5
27BD
330
1A00
100
AcDbEntity
  8
Defpoints
 62
     0
100
AcDbPoint
 10
-1086.963479130439
 20
-700.1903002583458
 30
0.0
  0
POINT
  5
27BE
330
1A00
100
AcDbEntity
  8
Defpoints
 62
     0
100
AcDbPoint
 10
-1508.874131957567
 20
-908.190244945235
 30
0.0
  0
POINT
  5
27BF
330
1A00
100
AcDbEntity
  8
Defpoints
 62
     0
100
AcDbPoint
 10
-1508.874131957567
 20
-538.1029321381221
 30
0.0
  0
ENDBLK
  5
1A0B
330
1A00
100
AcDbEntity
  8
0
100
AcDbBlockEnd
  0
BLOCK
  5
1A95
330
1A8B
100
AcDbEntity
  8
0
100
AcDbBlockBegin
  2
*D20
 70
     1
 10
0.0
 20
0.0
 30
0.0
  3
*D20
  1

  0
LINE
  5
25BA
330
1A8B
100
AcDbEntity
  8
AM_5
100
AcDbLine
 10
-1086.963479130439
 20
-700.1903002583458
 30
0.0
 11
-1086.963479130439
 21
-518.1029321381219
 31
0.0
  0
LINE
  5
25BB
330
1A8B
100
AcDbEntity
  8
AM_5
100
AcDbLine
 10
-921.9634982039286
 20
-900.1902287327721
 30
0.0
 11
-921.9634982039286
 21
-518.1029321381219
 31
0.0
  0
LINE
  5
25BC
330
1A8B
100
AcDbEntity
  8
AM_5
100
AcDbLine
 10
-1051.963479130439
 20
-538.102932138122
 30
0.0
 11
-956.9634982039287
 21
-538.102932138122
 31
0.0
  0
SOLID
  5
25BD
330
1A8B
100
AcDbEntity
  8
AM_5
100
AcDbTrace
 10
-1051.963479130439
 20
-532.2695988047886
 30
0.0
 11
-1051.963479130439
 21
-543.9362654714551
 31
0.0
 12
-1086.963479130439
 22
-538.102932138122
 32
0.0
 13
-1086.963479130439
 23
-538.102932138122
 33
0.0
  0
SOLID
  5
25BE
330
1A8B
100
AcDbEntity
  8
AM_5
100
AcDbTrace
 10
-956.9634982039287
 20
-532.2695988047886
 30
0.0
 11
-956.9634982039287
 21
-543.9362654714551
 31
0.0
 12
-921.9634982039286
 22
-538.102932138122
 32
0.0
 13
-921.9634982039286
 23
-538.102932138122
 33
0.0
  0
MTEXT
  5
25BF
330
1A8B
100
AcDbEntity
  8
AM_5
 62
     2
100
AcDbMText
 10
-1004.463488667185
 20
-507.9744872562322
 30
0.0
 40
35.0
 41
0.0
 71
     5
 72
     1
  1
82,5
 73
     1
 44
1.0
  0
POINT
  5
25C0
330
1A8B
100
AcDbEntity
  8
Defpoints
 62
     0
100
AcDbPoint
 10
-1086.963479130439
 20
-700.1903002583458
 30
0.0
  0
POINT
  5
25C1
330
1A8B
100
AcDbEntity
  8
Defpoints
 62
     0
100
AcDbPoint
 10
-921.9634982039286
 20
-900.1902287327721
 30
0.0
  0
POINT
  5
25C2
330
1A8B
100
AcDbEntity
  8
Defpoints
 62
     0
100
AcDbPoint
 10
-921.9634982039286
 20
-538.102932138122
 30
0.0
  0
ENDBLK
  5
1A96
330
1A8B
100
AcDbEntity
  8
0
100
AcDbBlockEnd
  0
BLOCK
  5
1B34
330
1B2A
100
AcDbEntity
  8
0
100
AcDbBlockBegin
  2
*D21
 70
     1
 10
0.0
 20
0.0
 30
0.0
  3
*D21
  1

  0
LINE
  5
27A4
330
1B2A
100
AcDbEntity
  8
AM_5
100
AcDbLine
 10
-1041.963479130439
 20
-1132.190160068221
 30
0.0
 11
-1041.963479130439
 21
-1351.743701496512
 31
0.0
  0
LINE
  5
27A5
330
1B2A
100
AcDbEntity
  8
AM_5
100
AcDbLine
 10
-1076.96347913044
 20
-1331.743701496511
 30
0.0
 11
-1220.634568338639
 21
-1331.743701496511
 31
0.0
  0
SOLID
  5
27A6
330
1B2A
100
AcDbEntity
  8
AM_5
100
AcDbTrace
 10
-1076.96347913044
 20
-1325.910368163178
 30
0.0
 11
-1076.96347913044
 21
-1337.577034829845
 31
0.0
 12
-1041.963479130439
 22
-1331.743701496511
 32
0.0
 13
-1041.963479130439
 23
-1331.743701496511
 33
0.0
  0
MTEXT
  5
27A7
330
1B2A
100
AcDbEntity
  8
AM_5
 62
     2
100
AcDbMText
 10
-1187.884568338639
 20
-1304.000298727591
 30
0.0
 40
35.0
 41
0.0
 71
     5
 72
     1
  1
DH
 73
     1
 44
1.0
  0
POINT
  5
27A8
330
1B2A
100
AcDbEntity
  8
Defpoints
 62
     0
100
AcDbPoint
 10
-1041.963479130439
 20
-1132.190160068221
 30
0.0
  0
POINT
  5
27A9
330
1B2A
100
AcDbEntity
  8
Defpoints
 62
     0
100
AcDbPoint
 10
-1333.805657546837
 20
-1072.190160068221
 30
0.0
  0
POINT
  5
27AA
330
1B2A
100
AcDbEntity
  8
Defpoints
 62
     0
100
AcDbPoint
 10
-1333.805657546837
 20
-1331.743701496511
 30
0.0
  0
ENDBLK
  5
1B35
330
1B2A
100
AcDbEntity
  8
0
100
AcDbBlockEnd
  0
BLOCK
  5
1BBC
330
1BB2
100
AcDbEntity
  8
0
100
AcDbBlockBegin
  2
*D22
 70
     1
 10
0.0
 20
0.0
 30
0.0
  3
*D22
  1

  0
LINE
  5
27AB
330
1BB2
100
AcDbEntity
  8
AM_5
100
AcDbLine
 10
-941.9634791304416
 20
-1057.190174373334
 30
0.0
 11
-941.9634791304416
 21
-1433.950357067506
 31
0.0
  0
LINE
  5
27AC
330
1BB2
100
AcDbEntity
  8
AM_5
100
AcDbLine
 10
-976.9634791304415
 20
-1413.950357067506
 30
0.0
 11
-1291.506305544004
 21
-1413.950357067506
 31
0.0
  0
SOLID
  5
27AD
330
1BB2
100
AcDbEntity
  8
AM_5
100
AcDbTrace
 10
-976.9634791304415
 20
-1408.117023734172
 30
0.0
 11
-976.9634791304415
 21
-1419.783690400838
 31
0.0
 12
-941.9634791304416
 22
-1413.950357067506
 32
0.0
 13
-941.9634791304416
 23
-1413.950357067506
 33
0.0
  0
MTEXT
  5
27AE
330
1BB2
100
AcDbEntity
  8
AM_5
 62
     2
100
AcDbMText
 10
-1225.418805544004
 20
-1386.450357067506
 30
0.0
 40
35.0
 41
0.0
 71
     5
 72
     1
  1
BWKB
 73
     1
 44
1.0
  0
POINT
  5
27AF
330
1BB2
100
AcDbEntity
  8
Defpoints
 62
     0
100
AcDbPoint
 10
-941.9634791304416
 20
-1057.190174373334
 30
0.0
  0
POINT
  5
27B0
330
1BB2
100
AcDbEntity
  8
Defpoints
 62
     0
100
AcDbPoint
 10
-1508.874131957567
 20
-908.190244945235
 30
0.0
  0
POINT
  5
27B1
330
1BB2
100
AcDbEntity
  8
Defpoints
 62
     0
100
AcDbPoint
 10
-1508.874131957567
 20
-1413.950357067506
 30
0.0
  0
ENDBLK
  5
1BBD
330
1BB2
100
AcDbEntity
  8
0
100
AcDbBlockEnd
  0
BLOCK
  5
1C47
330
1C3D
100
AcDbEntity
  8
0
100
AcDbBlockBegin
  2
*D23
 70
     1
 10
0.0
 20
0.0
 30
0.0
  3
*D23
  1

  0
LINE
  5
27B2
330
1C3D
100
AcDbEntity
  8
AM_5
100
AcDbLine
 10
-921.9634982039286
 20
-1265.775343818904
 30
0.0
 11
-921.9634982039286
 21
-1522.132485135117
 31
0.0
  0
LINE
  5
27B3
330
1C3D
100
AcDbEntity
  8
AM_5
100
AcDbLine
 10
-956.9634982039287
 20
-1502.132485135116
 30
0.0
 11
-1308.574907248439
 21
-1502.132485135116
 31
0.0
  0
SOLID
  5
27B4
330
1C3D
100
AcDbEntity
  8
AM_5
100
AcDbTrace
 10
-956.9634982039287
 20
-1496.299151801783
 30
0.0
 11
-956.9634982039287
 21
-1507.965818468449
 31
0.0
 12
-921.9634982039286
 22
-1502.132485135116
 32
0.0
 13
-921.9634982039286
 23
-1502.132485135116
 33
0.0
  0
MTEXT
  5
27B5
330
1C3D
100
AcDbEntity
  8
AM_5
 62
     2
100
AcDbMText
 10
-1215.418815080748
 20
-1474.570300799733
 30
0.0
 40
35.0
 41
0.0
 71
     5
 72
     1
  1
GBB min.
 73
     1
 44
1.0
  0
POINT
  5
27B6
330
1C3D
100
AcDbEntity
  8
Defpoints
 62
     0
100
AcDbPoint
 10
-921.9634982039286
 20
-1265.775343818904
 30
0.0
  0
POINT
  5
27B7
330
1C3D
100
AcDbEntity
  8
Defpoints
 62
     0
100
AcDbPoint
 10
-1508.874131957567
 20
-908.190244945235
 30
0.0
  0
POINT
  5
27B8
330
1C3D
100
AcDbEntity
  8
Defpoints
 62
     0
100
AcDbPoint
 10
-1508.874131957567
 20
-1502.132485135116
 30
0.0
  0
ENDBLK
  5
1C48
330
1C3D
100
AcDbEntity
  8
0
100
AcDbBlockEnd
  0
BLOCK
  5
1CD4
330
1CC8
100
AcDbEntity
  8
0
100
AcDbBlockBegin
  2
*D24
 70
     1
 10
0.0
 20
0.0
 30
0.0
  3
*D24
  1

  0
LINE
  5
25CA
330
1CC8
100
AcDbEntity
  8
AM_5
100
AcDbLine
 10
-941.9634791304416
 20
-1057.190174373334
 30
0.0
 11
-941.9634791304416
 21
-1433.950357067504
 31
0.0
  0
LINE
  5
25CB
330
1CC8
100
AcDbEntity
  8
AM_5
100
AcDbLine
 10
-921.9634982039282
 20
-1265.775343818904
 30
0.0
 11
-921.9634982039282
 21
-1433.950357067504
 31
0.0
  0
LINE
  5
25CC
330
1CC8
100
AcDbEntity
  8
AM_5
100
AcDbLine
 10
-976.9634791304415
 20
-1413.950357067505
 30
0.0
 11
-1011.963479130441
 21
-1413.950357067505
 31
0.0
  0
LINE
  5
25CD
330
1CC8
100
AcDbEntity
  8
AM_5
100
AcDbLine
 10
-886.9634982039285
 20
-1413.950357067505
 30
0.0
 11
-800.4359391488105
 21
-1413.950357067505
 31
0.0
  0
LINE
  5
25CE
330
1CC8
100
AcDbEntity
  8
AM_5
100
AcDbLine
 10
-941.9634791304416
 20
-1413.950357067505
 30
0.0
 11
-921.9634982039282
 21
-1413.950357067505
 31
0.0
  0
SOLID
  5
25CF
330
1CC8
100
AcDbEntity
  8
AM_5
100
AcDbTrace
 10
-976.9634791304415
 20
-1408.117023734171
 30
0.0
 11
-976.9634791304415
 21
-1419.783690400838
 31
0.0
 12
-941.9634791304416
 22
-1413.950357067505
 32
0.0
 13
-941.9634791304416
 23
-1413.950357067505
 33
0.0
  0
SOLID
  5
25D0
330
1CC8
100
AcDbEntity
  8
AM_5
100
AcDbTrace
 10
-886.9634982039285
 20
-1408.117023734171
 30
0.0
 11
-886.9634982039285
 21
-1419.783690400838
 31
0.0
 12
-921.9634982039282
 22
-1413.950357067505
 32
0.0
 13
-921.9634982039282
 23
-1413.950357067505
 33
0.0
  0
MTEXT
  5
25D1
330
1CC8
100
AcDbEntity
  8
AM_5
 62
     2
100
AcDbMText
 10
-826.1997186763695
 20
-1386.450357067505
 30
0.0
 40
35.0
 41
0.0
 71
     5
 72
     1
  1
10
 73
     1
 44
1.0
  0
POINT
  5
25D2
330
1CC8
100
AcDbEntity
  8
Defpoints
 62
     0
100
AcDbPoint
 10
-941.9634791304416
 20
-1057.190174373334
 30
0.0
  0
POINT
  5
25D3
330
1CC8
100
AcDbEntity
  8
Defpoints
 62
     0
100
AcDbPoint
 10
-921.9634982039282
 20
-1265.775343818904
 30
0.0
  0
POINT
  5
25D4
330
1CC8
100
AcDbEntity
  8
Defpoints
 62
     0
100
AcDbPoint
 10
-921.9634982039282
 20
-1413.950357067505
 30
0.0
  0
ENDBLK
  5
1CD5
330
1CC8
100
AcDbEntity
  8
0
100
AcDbBlockEnd
  0
BLOCK
  5
1D79
330
1D6F
100
AcDbEntity
  8
0
100
AcDbBlockBegin
  2
*D25
 70
     1
 10
0.0
 20
0.0
 30
0.0
  3
*D25
  1

  0
LINE
  5
26A8
330
1D6F
100
AcDbEntity
  8
AM_5
100
AcDbLine
 10
-1041.963479130439
 20
-1132.190160068221
 30
0.0
 11
-1041.963479130439
 21
-1154.382747630419
 31
0.0
  0
LINE
  5
26A9
330
1D6F
100
AcDbEntity
  8
AM_5
100
AcDbLine
 10
-921.9634982039286
 20
-1265.775343818904
 30
0.0
 11
-921.9634982039286
 21
-1351.743701496511
 31
0.0
  0
LINE
  5
26AA
330
1D6F
100
AcDbEntity
  8
AM_5
100
AcDbLine
 10
-1006.96347913044
 20
-1331.743701496511
 30
0.0
 11
-956.9634982039287
 21
-1331.743701496511
 31
0.0
  0
SOLID
  5
26AB
330
1D6F
100
AcDbEntity
  8
AM_5
100
AcDbTrace
 10
-1006.96347913044
 20
-1325.910368163178
 30
0.0
 11
-1006.96347913044
 21
-1337.577034829844
 31
0.0
 12
-1041.963479130439
 22
-1331.743701496511
 32
0.0
 13
-1041.963479130439
 23
-1331.743701496511
 33
0.0
  0
SOLID
  5
26AC
330
1D6F
100
AcDbEntity
  8
AM_5
100
AcDbTrace
 10
-956.9634982039287
 20
-1325.910368163178
 30
0.0
 11
-956.9634982039287
 21
-1337.577034829844
 31
0.0
 12
-921.9634982039286
 22
-1331.743701496511
 32
0.0
 13
-921.9634982039286
 23
-1331.743701496511
 33
0.0
  0
MTEXT
  5
26AD
330
1D6F
100
AcDbEntity
  8
AM_5
 62
     2
100
AcDbMText
 10
-981.9634886671851
 20
-1304.243701496511
 30
0.0
 40
35.0
 41
0.0
 71
     5
 72
     1
  1
60
 73
     1
 44
1.0
  0
POINT
  5
26AE
330
1D6F
100
AcDbEntity
  8
Defpoints
 62
     0
100
AcDbPoint
 10
-1041.963479130439
 20
-1132.190160068221
 30
0.0
  0
POINT
  5
26AF
330
1D6F
100
AcDbEntity
  8
Defpoints
 62
     0
100
AcDbPoint
 10
-921.9634982039286
 20
-1265.775343818904
 30
0.0
  0
POINT
  5
26B0
330
1D6F
100
AcDbEntity
  8
Defpoints
 62
     0
100
AcDbPoint
 10
-921.9634982039286
 20
-1331.743701496511
 30
0.0
  0
LINE
  5
26B1
330
1D6F
100
AcDbEntity
  8
AM_5
100
AcDbLine
 10
-1041.963479130439
 20
-1231.601274812606
 30
0.0
 11
-1041.963479130439
 21
-1351.743701496511
 31
0.0
  0
ENDBLK
  5
1D7A
330
1D6F
100
AcDbEntity
  8
0
100
AcDbBlockEnd
  0
BLOCK
  5
1DD9
330
1DCD
100
AcDbEntity
  8
0
100
AcDbBlockBegin
  2
*D26
 70
     1
 10
0.0
 20
0.0
 30
0.0
  3
*D26
  1

  0
LINE
  5
25F3
330
1DCD
100
AcDbEntity
  8
AM_5
100
AcDbLine
 10
-1097.963378041818
 20
-1064.1902541626
 30
0.0
 11
-1097.963378041818
 21
-1236.821265279945
 31
0.0
  0
LINE
  5
25F4
330
1DCD
100
AcDbEntity
  8
AM_5
100
AcDbLine
 10
-941.9634791136619
 20
-1064.190683130902
 30
0.0
 11
-941.9634791136619
 21
-1236.821265279945
 31
0.0
  0
LINE
  5
25F5
330
1DCD
100
AcDbEntity
  8
AM_5
100
AcDbLine
 10
-1062.963378041817
 20
-1216.821265279945
 30
0.0
 11
-976.9634791136619
 21
-1216.821265279945
 31
0.0
  0
SOLID
  5
25F6
330
1DCD
100
AcDbEntity
  8
AM_5
100
AcDbTrace
 10
-1062.963378041817
 20
-1210.987931946613
 30
0.0
 11
-1062.963378041817
 21
-1222.654598613279
 31
0.0
 12
-1097.963378041818
 22
-1216.821265279945
 32
0.0
 13
-1097.963378041818
 23
-1216.821265279945
 33
0.0
  0
SOLID
  5
25F7
330
1DCD
100
AcDbEntity
  8
AM_5
100
AcDbTrace
 10
-976.9634791136619
 20
-1210.987931946613
 30
0.0
 11
-976.9634791136619
 21
-1222.654598613279
 31
0.0
 12
-941.9634791136619
 22
-1216.821265279945
 32
0.0
 13
-941.9634791136619
 23
-1216.821265279945
 33
0.0
  0
MTEXT
  5
25F8
330
1DCD
100
AcDbEntity
  8
AM_5
 62
     2
100
AcDbMText
 10
-1019.96342857774
 20
-1189.321265279944
 30
0.0
 40
35.0
 41
0.0
 71
     5
 72
     1
  1
78
 73
     1
 44
1.0
  0
POINT
  5
25F9
330
1DCD
100
AcDbEntity
  8
Defpoints
 62
     0
100
AcDbPoint
 10
-1097.963378041818
 20
-1064.1902541626
 30
0.0
  0
POINT
  5
25FA
330
1DCD
100
AcDbEntity
  8
Defpoints
 62
     0
100
AcDbPoint
 10
-941.9634791136619
 20
-1064.190683130902
 30
0.0
  0
POINT
  5
25FB
330
1DCD
100
AcDbEntity
  8
Defpoints
 62
     0
100
AcDbPoint
 10
-941.9634791136619
 20
-1216.821265279945
 30
0.0
  0
ENDBLK
  5
1DDA
330
1DCD
100
AcDbEntity
  8
0
100
AcDbBlockEnd
  0
BLOCK
  5
1E70
330
1E66
100
AcDbEntity
  8
0
100
AcDbBlockBegin
  2
*D27
 70
     1
 10
0.0
 20
0.0
 30
0.0
  3
*D27
  1

  0
LINE
  5
25D5
330
1E66
100
AcDbEntity
  8
AM_5
100
AcDbLine
 10
-949.963376133784
 20
-1072.190160068221
 30
0.0
 11
-642.3783287020341
 21
-1072.190160068221
 31
0.0
  0
LINE
  5
25D6
330
1E66
100
AcDbEntity
  8
AM_5
100
AcDbLine
 10
-949.9625772707398
 20
-900.1902287327721
 30
0.0
 11
-642.3783287020341
 21
-900.1902287327721
 31
0.0
  0
LINE
  5
25D7
330
1E66
100
AcDbEntity
  8
AM_5
100
AcDbLine
 10
-662.3783287020342
 20
-1037.190160068221
 30
0.0
 11
-662.3783287020342
 21
-935.1902287327721
 31
0.0
  0
SOLID
  5
25D8
330
1E66
100
AcDbEntity
  8
AM_5
100
AcDbTrace
 10
-668.2116620353672
 20
-1037.190160068221
 30
0.0
 11
-656.5449953687007
 21
-1037.190160068221
 31
0.0
 12
-662.3783287020342
 22
-1072.190160068221
 32
0.0
 13
-662.3783287020342
 23
-1072.190160068221
 33
0.0
  0
SOLID
  5
25D9
330
1E66
100
AcDbEntity
  8
AM_5
100
AcDbTrace
 10
-668.2116620353672
 20
-935.1902287327721
 30
0.0
 11
-656.5449953687007
 21
-935.1902287327721
 31
0.0
 12
-662.3783287020342
 22
-900.1902287327721
 32
0.0
 13
-662.3783287020342
 23
-900.1902287327721
 33
0.0
  0
MTEXT
  5
25DA
330
1E66
100
AcDbEntity
  8
AM_5
 62
     2
100
AcDbMText
 10
-689.8783287020337
 20
-986.1901944004968
 30
0.0
 40
35.0
 41
0.0
 71
     5
 72
     1
  1
86
 11
0.0000000000000001
 21
1.0
 31
0.0
 73
     1
 44
1.0
  0
POINT
  5
25DB
330
1E66
100
AcDbEntity
  8
Defpoints
 62
     0
100
AcDbPoint
 10
-949.963376133784
 20
-1072.190160068221
 30
0.0
  0
POINT
  5
25DC
330
1E66
100
AcDbEntity
  8
Defpoints
 62
     0
100
AcDbPoint
 10
-949.9625772707398
 20
-900.1902287327721
 30
0.0
  0
POINT
  5
25DD
330
1E66
100
AcDbEntity
  8
Defpoints
 62
     0
100
AcDbPoint
 10
-662.3783287020342
 20
-900.1902287327721
 30
0.0
  0
ENDBLK
  5
1E71
330
1E66
100
AcDbEntity
  8
0
100
AcDbBlockEnd
  0
BLOCK
  5
20A5
330
209D
100
AcDbEntity
  8
0
100
AcDbBlockBegin
  2
*D28
 70
     1
 10
0.0
 20
0.0
 30
0.0
  3
*D28
  1

  0
LINE
  5
2788
330
209D
100
AcDbEntity
  8
AM_5
100
AcDbLine
 10
-99.34415934356753
 20
-1132.190160068221
 30
0.0
 11
-99.34415934356756
 21
-1351.743701496512
 31
0.0
  0
LINE
  5
2789
330
209D
100
AcDbEntity
  8
AM_5
100
AcDbLine
 10
-134.3441593435674
 20
-1331.743701496511
 30
0.0
 11
-278.0152485517651
 21
-1331.743701496511
 31
0.0
  0
SOLID
  5
278A
330
209D
100
AcDbEntity
  8
AM_5
100
AcDbTrace
 10
-134.3441593435674
 20
-1325.910368163178
 30
0.0
 11
-134.3441593435674
 21
-1337.577034829845
 31
0.0
 12
-99.34415934356756
 22
-1331.743701496511
 32
0.0
 13
-99.34415934356756
 23
-1331.743701496511
 33
0.0
  0
MTEXT
  5
278B
330
209D
100
AcDbEntity
  8
AM_5
 62
     2
100
AcDbMText
 10
-245.2652485517651
 20
-1304.000298727591
 30
0.0
 40
35.0
 41
0.0
 71
     5
 72
     1
  1
DB
 73
     1
 44
1.0
  0
POINT
  5
278C
330
209D
100
AcDbEntity
  8
Defpoints
 62
     0
100
AcDbPoint
 10
-99.34415934356753
 20
-1132.190160068221
 30
0.0
  0
POINT
  5
278D
330
209D
100
AcDbEntity
  8
Defpoints
 62
     0
100
AcDbPoint
 10
-391.1863377599626
 20
-1072.190160068221
 30
0.0
  0
POINT
  5
278E
330
209D
100
AcDbEntity
  8
Defpoints
 62
     0
100
AcDbPoint
 10
-391.1863377599626
 20
-1331.743701496511
 30
0.0
  0
ENDBLK
  5
20A6
330
209D
100
AcDbEntity
  8
0
100
AcDbBlockEnd
  0
BLOCK
  5
20AF
330
20A7
100
AcDbEntity
  8
0
100
AcDbBlockBegin
  2
*D29
 70
     1
 10
0.0
 20
0.0
 30
0.0
  3
*D29
  1

  0
LINE
  5
278F
330
20A7
100
AcDbEntity
  8
AM_5
100
AcDbLine
 10
0.6558406564324743
 20
-1057.190174373334
 30
0.0
 11
0.6558406564324512
 21
-1433.950357067506
 31
0.0
  0
LINE
  5
2790
330
20A7
100
AcDbEntity
  8
AM_5
100
AcDbLine
 10
-34.34415934356755
 20
-1413.950357067506
 30
0.0
 11
-348.8869857571302
 21
-1413.950357067506
 31
0.0
  0
SOLID
  5
2791
330
20A7
100
AcDbEntity
  8
AM_5
100
AcDbTrace
 10
-34.34415934356755
 20
-1408.117023734172
 30
0.0
 11
-34.34415934356755
 21
-1419.783690400838
 31
0.0
 12
0.6558406564324524
 22
-1413.950357067506
 32
0.0
 13
0.6558406564324524
 23
-1413.950357067506
 33
0.0
  0
MTEXT
  5
2792
330
20A7
100
AcDbEntity
  8
AM_5
 62
     2
100
AcDbMText
 10
-282.7994857571303
 20
-1386.450357067506
 30
0.0
 40
35.0
 41
0.0
 71
     5
 72
     1
  1
BWKB
 73
     1
 44
1.0
  0
POINT
  5
2793
330
20A7
100
AcDbEntity
  8
Defpoints
 62
     0
100
AcDbPoint
 10
0.6558406564324743
 20
-1057.190174373334
 30
0.0
  0
POINT
  5
2794
330
20A7
100
AcDbEntity
  8
Defpoints
 62
     0
100
AcDbPoint
 10
-566.2548121706931
 20
-908.190244945235
 30
0.0
  0
POINT
  5
2795
330
20A7
100
AcDbEntity
  8
Defpoints
 62
     0
100
AcDbPoint
 10
-566.2548121706931
 20
-1413.950357067506
 30
0.0
  0
ENDBLK
  5
20B0
330
20A7
100
AcDbEntity
  8
0
100
AcDbBlockEnd
  0
BLOCK
  5
20B9
330
20B1
100
AcDbEntity
  8
0
100
AcDbBlockBegin
  2
*D30
 70
     1
 10
0.0
 20
0.0
 30
0.0
  3
*D30
  1

  0
LINE
  5
2796
330
20B1
100
AcDbEntity
  8
AM_5
100
AcDbLine
 10
20.65582158294569
 20
-1265.775343818904
 30
0.0
 11
20.65582158294567
 21
-1522.132485135117
 31
0.0
  0
LINE
  5
2797
330
20B1
100
AcDbEntity
  8
AM_5
100
AcDbLine
 10
-14.34417841705432
 20
-1502.132485135116
 30
0.0
 11
-365.9555874615648
 21
-1502.132485135116
 31
0.0
  0
SOLID
  5
2798
330
20B1
100
AcDbEntity
  8
AM_5
100
AcDbTrace
 10
-14.34417841705432
 20
-1496.299151801783
 30
0.0
 11
-14.34417841705432
 21
-1507.965818468449
 31
0.0
 12
20.65582158294567
 22
-1502.132485135116
 32
0.0
 13
20.65582158294567
 23
-1502.132485135116
 33
0.0
  0
MTEXT
  5
2799
330
20B1
100
AcDbEntity
  8
AM_5
 62
     2
100
AcDbMText
 10
-272.7994952938737
 20
-1474.570300799733
 30
0.0
 40
35.0
 41
0.0
 71
     5
 72
     1
  1
GBB min.
 73
     1
 44
1.0
  0
POINT
  5
279A
330
20B1
100
AcDbEntity
  8
Defpoints
 62
     0
100
AcDbPoint
 10
20.65582158294569
 20
-1265.775343818904
 30
0.0
  0
POINT
  5
279B
330
20B1
100
AcDbEntity
  8
Defpoints
 62
     0
100
AcDbPoint
 10
-566.2548121706931
 20
-908.190244945235
 30
0.0
  0
POINT
  5
279C
330
20B1
100
AcDbEntity
  8
Defpoints
 62
     0
100
AcDbPoint
 10
-566.2548121706931
 20
-1502.132485135116
 30
0.0
  0
ENDBLK
  5
20BA
330
20B1
100
AcDbEntity
  8
0
100
AcDbBlockEnd
  0
BLOCK
  5
20C7
330
20BB
100
AcDbEntity
  8
0
100
AcDbBlockBegin
  2
*D31
 70
     1
 10
0.0
 20
0.0
 30
0.0
  3
*D31
  1

  0
LINE
  5
2610
330
20BB
100
AcDbEntity
  8
AM_5
100
AcDbLine
 10
0.6558406564324743
 20
-1057.190174373334
 30
0.0
 11
0.6558406564324512
 21
-1433.950357067504
 31
0.0
  0
LINE
  5
2611
330
20BB
100
AcDbEntity
  8
AM_5
100
AcDbLine
 10
20.6558215829458
 20
-1265.775343818904
 30
0.0
 11
20.65582158294577
 21
-1433.950357067504
 31
0.0
  0
LINE
  5
2612
330
20BB
100
AcDbEntity
  8
AM_5
100
AcDbLine
 10
-34.34415934356755
 20
-1413.950357067505
 30
0.0
 11
-69.34415934356754
 21
-1413.950357067505
 31
0.0
  0
LINE
  5
2613
330
20BB
100
AcDbEntity
  8
AM_5
100
AcDbLine
 10
55.65582158294578
 20
-1413.950357067505
 30
0.0
 11
142.1833806380639
 21
-1413.950357067505
 31
0.0
  0
LINE
  5
2614
330
20BB
100
AcDbEntity
  8
AM_5
100
AcDbLine
 10
0.6558406564324523
 20
-1413.950357067505
 30
0.0
 11
20.65582158294577
 21
-1413.950357067505
 31
0.0
  0
SOLID
  5
2615
330
20BB
100
AcDbEntity
  8
AM_5
100
AcDbTrace
 10
-34.34415934356755
 20
-1408.117023734171
 30
0.0
 11
-34.34415934356755
 21
-1419.783690400838
 31
0.0
 12
0.6558406564324523
 22
-1413.950357067505
 32
0.0
 13
0.6558406564324523
 23
-1413.950357067505
 33
0.0
  0
SOLID
  5
2616
330
20BB
100
AcDbEntity
  8
AM_5
100
AcDbTrace
 10
55.65582158294578
 20
-1408.117023734171
 30
0.0
 11
55.65582158294578
 21
-1419.783690400838
 31
0.0
 12
20.65582158294577
 22
-1413.950357067505
 32
0.0
 13
20.65582158294577
 23
-1413.950357067505
 33
0.0
  0
MTEXT
  5
2617
330
20BB
100
AcDbEntity
  8
AM_5
 62
     2
100
AcDbMText
 10
116.4196011105048
 20
-1386.450357067505
 30
0.0
 40
35.0
 41
0.0
 71
     5
 72
     1
  1
10
 73
     1
 44
1.0
  0
POINT
  5
2618
330
20BB
100
AcDbEntity
  8
Defpoints
 62
     0
100
AcDbPoint
 10
0.6558406564324743
 20
-1057.190174373334
 30
0.0
  0
POINT
  5
2619
330
20BB
100
AcDbEntity
  8
Defpoints
 62
     0
100
AcDbPoint
 10
20.6558215829458
 20
-1265.775343818904
 30
0.0
  0
POINT
  5
261A
330
20BB
100
AcDbEntity
  8
Defpoints
 62
     0
100
AcDbPoint
 10
20.65582158294577
 20
-1413.950357067505
 30
0.0
  0
ENDBLK
  5
20C8
330
20BB
100
AcDbEntity
  8
0
100
AcDbBlockEnd
  0
BLOCK
  5
20D3
330
20C9
100
AcDbEntity
  8
0
100
AcDbBlockBegin
  2
*D32
 70
     1
 10
0.0
 20
0.0
 30
0.0
  3
*D32
  1

  0
LINE
  5
26E0
330
20C9
100
AcDbEntity
  8
AM_5
100
AcDbLine
 10
-99.34415934356753
 20
-1132.190160068221
 30
0.0
 11
-99.34415934356753
 21
-1157.190690823582
 31
0.0
  0
LINE
  5
26E1
330
20C9
100
AcDbEntity
  8
AM_5
100
AcDbLine
 10
20.65582158294569
 20
-1265.775343818904
 30
0.0
 11
20.65582158294569
 21
-1351.743701496511
 31
0.0
  0
LINE
  5
26E2
330
20C9
100
AcDbEntity
  8
AM_5
100
AcDbLine
 10
-64.34415934356754
 20
-1331.743701496511
 30
0.0
 11
-14.34417841705431
 21
-1331.743701496511
 31
0.0
  0
SOLID
  5
26E3
330
20C9
100
AcDbEntity
  8
AM_5
100
AcDbTrace
 10
-64.34415934356754
 20
-1325.910368163178
 30
0.0
 11
-64.34415934356754
 21
-1337.577034829844
 31
0.0
 12
-99.34415934356756
 22
-1331.743701496511
 32
0.0
 13
-99.34415934356756
 23
-1331.743701496511
 33
0.0
  0
SOLID
  5
26E4
330
20C9
100
AcDbEntity
  8
AM_5
100
AcDbTrace
 10
-14.34417841705431
 20
-1325.910368163178
 30
0.0
 11
-14.34417841705431
 21
-1337.577034829844
 31
0.0
 12
20.65582158294569
 22
-1331.743701496511
 32
0.0
 13
20.65582158294569
 23
-1331.743701496511
 33
0.0
  0
MTEXT
  5
26E5
330
20C9
100
AcDbEntity
  8
AM_5
 62
     2
100
AcDbMText
 10
-39.34416888031092
 20
-1304.243701496511
 30
0.0
 40
35.0
 41
0.0
 71
     5
 72
     1
  1
60
 73
     1
 44
1.0
  0
POINT
  5
26E6
330
20C9
100
AcDbEntity
  8
Defpoints
 62
     0
100
AcDbPoint
 10
-99.34415934356753
 20
-1132.190160068221
 30
0.0
  0
POINT
  5
26E7
330
20C9
100
AcDbEntity
  8
Defpoints
 62
     0
100
AcDbPoint
 10
20.65582158294569
 20
-1265.775343818904
 30
0.0
  0
POINT
  5
26E8
330
20C9
100
AcDbEntity
  8
Defpoints
 62
     0
100
AcDbPoint
 10
20.65582158294569
 20
-1331.743701496511
 30
0.0
  0
LINE
  5
26E9
330
20C9
100
AcDbEntity
  8
AM_5
100
AcDbLine
 10
-99.34415934356753
 20
-1233.005243327458
 30
0.0
 11
-99.34415934356756
 21
-1351.743701496511
 31
0.0
  0
ENDBLK
  5
20D4
330
20C9
100
AcDbEntity
  8
0
100
AcDbBlockEnd
  0
BLOCK
  5
20DF
330
20D5
100
AcDbEntity
  8
0
100
AcDbBlockBegin
  2
*D33
 70
     1
 10
0.0
 20
0.0
 30
0.0
  3
*D33
  1

  0
LINE
  5
2639
330
20D5
100
AcDbEntity
  8
AM_5
100
AcDbLine
 10
-155.344058254944
 20
-1064.1902541626
 30
0.0
 11
-155.344058254944
 21
-1236.821265279945
 31
0.0
  0
LINE
  5
263A
330
20D5
100
AcDbEntity
  8
AM_5
100
AcDbLine
 10
0.6558406732121968
 20
-1064.190683130902
 30
0.0
 11
0.6558406732121861
 21
-1236.821265279945
 31
0.0
  0
LINE
  5
263B
330
20D5
100
AcDbEntity
  8
AM_5
100
AcDbLine
 10
-120.3440582549442
 20
-1216.821265279945
 30
0.0
 11
-34.34415932678781
 21
-1216.821265279945
 31
0.0
  0
SOLID
  5
263C
330
20D5
100
AcDbEntity
  8
AM_5
100
AcDbTrace
 10
-120.3440582549442
 20
-1210.987931946613
 30
0.0
 11
-120.3440582549442
 21
-1222.654598613279
 31
0.0
 12
-155.344058254944
 22
-1216.821265279945
 32
0.0
 13
-155.344058254944
 23
-1216.821265279945
 33
0.0
  0
SOLID
  5
263D
330
20D5
100
AcDbEntity
  8
AM_5
100
AcDbTrace
 10
-34.34415932678781
 20
-1210.987931946613
 30
0.0
 11
-34.34415932678781
 21
-1222.654598613279
 31
0.0
 12
0.6558406732121873
 22
-1216.821265279945
 32
0.0
 13
0.6558406732121873
 23
-1216.821265279945
 33
0.0
  0
MTEXT
  5
263E
330
20D5
100
AcDbEntity
  8
AM_5
 62
     2
100
AcDbMText
 10
-77.34410879086602
 20
-1189.321265279944
 30
0.0
 40
35.0
 41
0.0
 71
     5
 72
     1
  1
78
 73
     1
 44
1.0
  0
POINT
  5
263F
330
20D5
100
AcDbEntity
  8
Defpoints
 62
     0
100
AcDbPoint
 10
-155.344058254944
 20
-1064.1902541626
 30
0.0
  0
POINT
  5
2640
330
20D5
100
AcDbEntity
  8
Defpoints
 62
     0
100
AcDbPoint
 10
0.6558406732121968
 20
-1064.190683130902
 30
0.0
  0
POINT
  5
2641
330
20D5
100
AcDbEntity
  8
Defpoints
 62
     0
100
AcDbPoint
 10
0.6558406732121873
 20
-1216.821265279945
 30
0.0
  0
ENDBLK
  5
20E0
330
20D5
100
AcDbEntity
  8
0
100
AcDbBlockEnd
  0
BLOCK
  5
20EB
330
20E1
100
AcDbEntity
  8
0
100
AcDbBlockBegin
  2
*D34
 70
     1
 10
0.0
 20
0.0
 30
0.0
  3
*D34
  1

  0
LINE
  5
25B1
330
20E1
100
AcDbEntity
  8
AM_5
100
AcDbLine
 10
-7.344056346909722
 20
-1072.190160068221
 30
0.0
 11
300.2409910848401
 21
-1072.190160068221
 31
0.0
  0
LINE
  5
25B2
330
20E1
100
AcDbEntity
  8
AM_5
100
AcDbLine
 10
-7.343257483865499
 20
-900.1902287327721
 30
0.0
 11
300.2409910848401
 21
-900.1902287327721
 31
0.0
  0
LINE
  5
25B3
330
20E1
100
AcDbEntity
  8
AM_5
100
AcDbLine
 10
280.2409910848399
 20
-1037.190160068221
 30
0.0
 11
280.2409910848399
 21
-935.1902287327721
 31
0.0
  0
SOLID
  5
25B4
330
20E1
100
AcDbEntity
  8
AM_5
100
AcDbTrace
 10
274.4076577515067
 20
-1037.190160068221
 30
0.0
 11
286.0743244181735
 21
-1037.190160068221
 31
0.0
 12
280.2409910848399
 22
-1072.190160068221
 32
0.0
 13
280.2409910848399
 23
-1072.190160068221
 33
0.0
  0
SOLID
  5
25B5
330
20E1
100
AcDbEntity
  8
AM_5
100
AcDbTrace
 10
274.4076577515067
 20
-935.1902287327721
 30
0.0
 11
286.0743244181735
 21
-935.1902287327721
 31
0.0
 12
280.2409910848399
 22
-900.1902287327721
 32
0.0
 13
280.2409910848399
 23
-900.1902287327721
 33
0.0
  0
MTEXT
  5
25B6
330
20E1
100
AcDbEntity
  8
AM_5
 62
     2
100
AcDbMText
 10
252.7409910848403
 20
-986.1901944004968
 30
0.0
 40
35.0
 41
0.0
 71
     5
 72
     1
  1
86
 11
0.0000000000000001
 21
1.0
 31
0.0
 73
     1
 44
1.0
  0
POINT
  5
25B7
330
20E1
100
AcDbEntity
  8
Defpoints
 62
     0
100
AcDbPoint
 10
-7.344056346909722
 20
-1072.190160068221
 30
0.0
  0
POINT
  5
25B8
330
20E1
100
AcDbEntity
  8
Defpoints
 62
     0
100
AcDbPoint
 10
-7.343257483865499
 20
-900.1902287327721
 30
0.0
  0
POINT
  5
25B9
330
20E1
100
AcDbEntity
  8
Defpoints
 62
     0
100
AcDbPoint
 10
280.2409910848399
 20
-900.1902287327721
 30
0.0
  0
ENDBLK
  5
20EC
330
20E1
100
AcDbEntity
  8
0
100
AcDbBlockEnd
  0
BLOCK
  5
23AA
330
239E
100
AcDbEntity
  8
0
100
AcDbBlockBegin
  2
*D35
 70
     1
 10
0.0
 20
0.0
 30
0.0
  3
*D35
  1

  0
LINE
  5
24C8
330
239E
100
AcDbEntity
  8
AM_5
100
AcDbLine
 10
1533.796528678467
 20
455.1750174535988
 30
0.0
 11
1407.296527668465
 21
455.1750174535988
 31
0.0
  0
LINE
  5
24C9
330
239E
100
AcDbEntity
  8
AM_5
100
AcDbLine
 10
1533.796528678468
 20
541.1750174535987
 30
0.0
 11
1407.296527668467
 21
541.1750174535987
 31
0.0
  0
LINE
  5
24CA
330
239E
100
AcDbEntity
  8
AM_5
100
AcDbLine
 10
1427.296527668467
 20
420.1750174535987
 30
0.0
 11
1427.296527668467
 21
385.1750174535987
 31
0.0
  0
LINE
  5
24CB
330
239E
100
AcDbEntity
  8
AM_5
100
AcDbLine
 10
1427.296527668467
 20
576.1750174535989
 30
0.0
 11
1427.296527668467
 21
671.4112379260399
 31
0.0
  0
LINE
  5
24CC
330
239E
100
AcDbEntity
  8
AM_5
100
AcDbLine
 10
1427.296527668467
 20
455.1750174535988
 30
0.0
 11
1427.296527668467
 21
541.1750174535987
 31
0.0
  0
SOLID
  5
24CD
330
239E
100
AcDbEntity
  8
AM_5
100
AcDbTrace
 10
1421.463194335133
 20
420.1750174535987
 30
0.0
 11
1433.1298610018
 21
420.1750174535987
 31
0.0
 12
1427.296527668467
 22
455.1750174535988
 32
0.0
 13
1427.296527668467
 23
455.1750174535988
 33
0.0
  0
SOLID
  5
24CE
330
239E
100
AcDbEntity
  8
AM_5
100
AcDbTrace
 10
1421.463194335133
 20
576.1750174535989
 30
0.0
 11
1433.1298610018
 21
576.1750174535989
 31
0.0
 12
1427.296527668467
 22
541.1750174535987
 32
0.0
 13
1427.296527668467
 23
541.1750174535987
 33
0.0
  0
MTEXT
  5
24CF
330
239E
100
AcDbEntity
  8
AM_5
 62
     2
100
AcDbMText
 10
1399.796527668467
 20
641.2931276898196
 30
0.0
 40
35.0
 41
0.0
 71
     5
 72
     1
  1
86
 11
0.0000000000000001
 21
1.0
 31
0.0
 73
     1
 44
1.0
  0
POINT
  5
24D0
330
239E
100
AcDbEntity
  8
Defpoints
 62
     0
100
AcDbPoint
 10
1533.796528678467
 20
455.1750174535988
 30
0.0
  0
POINT
  5
24D1
330
239E
100
AcDbEntity
  8
Defpoints
 62
     0
100
AcDbPoint
 10
1533.796528678468
 20
541.1750174535987
 30
0.0
  0
POINT
  5
24D2
330
239E
100
AcDbEntity
  8
Defpoints
 62
     0
100
AcDbPoint
 10
1427.296527668467
 20
541.1750174535987
 30
0.0
  0
ENDBLK
  5
23AB
330
239E
100
AcDbEntity
  8
0
100
AcDbBlockEnd
  0
BLOCK
  5
244E
330
2442
100
AcDbEntity
  8
0
100
AcDbBlockBegin
  2
*D36
 70
     1
 10
0.0
 20
0.0
 30
0.0
  3
*D36
  1

  0
LINE
  5
24BD
330
2442
100
AcDbEntity
  8
AM_5
100
AcDbLine
 10
1529.796528678467
 20
537.1750174535987
 30
0.0
 11
1529.796528678467
 21
657.1750174535988
 31
0.0
  0
LINE
  5
24BE
330
2442
100
AcDbEntity
  8
AM_5
100
AcDbLine
 10
1607.796528678467
 20
537.1750174535987
 30
0.0
 11
1607.796528678467
 21
657.1750174535988
 31
0.0
  0
LINE
  5
24BF
330
2442
100
AcDbEntity
  8
AM_5
100
AcDbLine
 10
1494.796528678467
 20
637.1750174535989
 30
0.0
 11
1459.796528678467
 21
637.1750174535989
 31
0.0
  0
LINE
  5
24C0
330
2442
100
AcDbEntity
  8
AM_5
100
AcDbLine
 10
1642.796528678467
 20
637.1750174535989
 30
0.0
 11
1736.296528678467
 21
637.1750174535989
 31
0.0
  0
LINE
  5
24C1
330
2442
100
AcDbEntity
  8
AM_5
100
AcDbLine
 10
1529.796528678467
 20
637.1750174535989
 30
0.0
 11
1607.796528678467
 21
637.1750174535989
 31
0.0
  0
SOLID
  5
24C2
330
2442
100
AcDbEntity
  8
AM_5
100
AcDbTrace
 10
1494.796528678467
 20
643.0083507869321
 30
0.0
 11
1494.796528678467
 21
631.3416841202655
 31
0.0
 12
1529.796528678467
 22
637.1750174535989
 32
0.0
 13
1529.796528678467
 23
637.1750174535989
 33
0.0
  0
SOLID
  5
24C3
330
2442
100
AcDbEntity
  8
AM_5
100
AcDbTrace
 10
1642.796528678467
 20
643.0083507869321
 30
0.0
 11
1642.796528678467
 21
631.3416841202655
 31
0.0
 12
1607.796528678467
 22
637.1750174535989
 32
0.0
 13
1607.796528678467
 23
637.1750174535989
 33
0.0
  0
MTEXT
  5
24C4
330
2442
100
AcDbEntity
  8
AM_5
 62
     2
100
AcDbMText
 10
1707.046528678468
 20
664.6750174535989
 30
0.0
 40
35.0
 41
0.0
 71
     5
 72
     1
  1
78
 73
     1
 44
1.0
  0
POINT
  5
24C5
330
2442
100
AcDbEntity
  8
Defpoints
 62
     0
100
AcDbPoint
 10
1529.796528678467
 20
537.1750174535987
 30
0.0
  0
POINT
  5
24C6
330
2442
100
AcDbEntity
  8
Defpoints
 62
     0
100
AcDbPoint
 10
1607.796528678467
 20
537.1750174535987
 30
0.0
  0
POINT
  5
24C7
330
2442
100
AcDbEntity
  8
Defpoints
 62
     0
100
AcDbPoint
 10
1607.796528678467
 20
637.1750174535989
 30
0.0
  0
ENDBLK
  5
244F
330
2442
100
AcDbEntity
  8
0
100
AcDbBlockEnd
  0
ENDSEC
  0
SECTION
  2
ENTITIES
  0
LINE
  5
A56
330
1F
100
AcDbEntity
  8
Torblatt-AM_0
100
AcDbLine
 10
657.193556332515
 20
360.3430981796143
 30
0.0
 11
681.1183839081977
 21
360.3430981796143
 31
0.0
  0
LINE
  5
A57
330
1F
100
AcDbEntity
  8
Torblatt-AM_0
100
AcDbLine
 10
681.1183839081977
 20
367.0623893897885
 30
0.0
 11
657.2830825089668
 21
367.0623893897885
 31
0.0
  0
LINE
  5
A5A
330
1F
100
AcDbEntity
  8
AM_0
100
AcDbLine
 10
704.9359135865434
 20
488.4526724975461
 30
0.0
 11
704.9359135865434
 21
388.4527082603331
 31
0.0
  0
LINE
  5
A5B
330
1F
100
AcDbEntity
  8
AM_0
100
AcDbLine
 10
787.4359040497997
 20
188.452720181262
 30
0.0
 11
887.4359278916577
 21
188.452720181262
 31
0.0
  0
LINE
  5
A5C
330
1F
100
AcDbEntity
  8
AM_0
100
AcDbLine
 10
787.4359040497997
 20
388.4527082603331
 30
0.0
 11
787.4359040497997
 21
188.452720181262
 31
0.0
  0
LINE
  5
A5D
330
1F
100
AcDbEntity
  8
AM_0
100
AcDbLine
 10
704.9359135865434
 20
388.4527082603331
 30
0.0
 11
787.4359040497997
 21
388.4527082603331
 31
0.0
  0
LINE
  5
A63
330
1F
100
AcDbEntity
  8
Torblatt-AM_0
100
AcDbLine
 10
691.1183743714549
 20
359.0562935035582
 30
0.0
 11
691.1183743714549
 21
304.2379613082763
 31
0.0
  0
ARC
  5
A64
330
1F
100
AcDbEntity
  8
Torblatt-AM_0
100
AcDbCircle
 10
668.6017534176162
 20
304.1860884341081
 30
0.0
 40
0.9833406051726591
100
AcDbArc
 50
190.4938094427355
 51
270.0076867978803
  0
ARC
  5
A65
330
1F
100
AcDbEntity
  8
Torblatt-AM_0
100
AcDbCircle
 10
690.0831918115112
 20
304.2378707951888
 30
0.0
 40
1.78512820284811
100
AcDbArc
 50
269.9990078908269
 51
0.0
  0
ARC
  5
A66
330
1F
100
AcDbEntity
  8
Torblatt-AM_0
100
AcDbCircle
 10
690.0830529155348
 20
304.2380692942172
 30
0.0
 40
1.035321462031825
100
AcDbArc
 50
270.0059760291229
 51
0.0000000000008142
  0
LINE
  5
A67
330
1F
100
AcDbEntity
  8
Torblatt-AM_0
100
AcDbLine
 10
657.0214181184028
 20
361.2716193359251
 30
0.0
 11
667.6348595856884
 21
304.0069933097718
 31
0.0
  0
LINE
  5
A68
330
1F
100
AcDbEntity
  8
Torblatt-AM_0
100
AcDbLine
 10
690.0831609009959
 20
303.2027478378166
 30
0.0
 11
668.6018853425247
 21
303.2027478378166
 31
0.0
  0
ARC
  5
A6A
330
1F
100
AcDbEntity
  8
Torblatt-AM_0
100
AcDbCircle
 10
668.601788341678
 20
304.1861082551653
 30
0.0
 40
1.733365665401873
100
AcDbArc
 50
190.4968935154438
 51
270.0032063281479
  0
LINE
  5
A6B
330
1F
100
AcDbEntity
  8
Torblatt-AM_0
100
AcDbLine
 10
690.7848267792917
 20
361.8713612716553
 30
0.0
 11
691.868320012019
 21
359.2027421157713
 31
0.0
  0
ARC
  5
A6C
330
1F
100
AcDbEntity
  8
Torblatt-AM_0
100
AcDbCircle
 10
689.8624641631859
 20
365.9084623151727
 30
0.0
 40
0.99545209699662
100
AcDbArc
 50
253.7574232752605
 51
337.9073059215055
  0
ARC
  5
A6D
330
1F
100
AcDbEntity
  8
Torblatt-AM_0
100
AcDbCircle
 10
689.862441018426
 20
365.9085539338356
 30
0.0
 40
0.2455540048097366
100
AcDbArc
 50
246.7393488369911
 51
337.9012380634533
  0
LINE
  5
A6E
330
1F
100
AcDbEntity
  8
Torblatt-AM_0
100
AcDbLine
 10
690.0899558305009
 20
365.8161754768248
 30
0.0
 11
691.1183743714549
 21
368.3491940658448
 31
0.0
  0
LINE
  5
A6F
330
1F
100
AcDbEntity
  8
Torblatt-AM_0
100
AcDbLine
 10
691.868320012019
 20
368.2027454536312
 30
0.0
 11
691.868320012019
 21
382.6674814384336
 31
0.0
  0
ARC
  5
A70
330
1F
100
AcDbEntity
  8
Torblatt-AM_0
100
AcDbCircle
 10
689.8623773432733
 20
361.4968843162541
 30
0.0
 40
0.9955631331754151
100
AcDbArc
 50
22.09515197550506
 51
106.235510851797
  0
LINE
  5
A71
330
1F
100
AcDbEntity
  8
Torblatt-AM_0
100
AcDbLine
 10
681.5426497697099
 20
366.2776346366761
 30
0.0
 11
689.5840316056465
 21
364.9527425926087
 31
0.0
  0
LINE
  5
A72
330
1F
100
AcDbEntity
  8
Torblatt-AM_0
100
AcDbLine
 10
691.868320012019
 20
359.2027421157713
 30
0.0
 11
691.868320012019
 21
304.2379613082763
 31
0.0
  0
ARC
  5
A73
330
1F
100
AcDbEntity
  8
Torblatt-AM_0
100
AcDbCircle
 10
690.083191811336
 20
382.667571951219
 30
0.0
 40
1.78512820315023
100
AcDbArc
 50
0.0000000000008142
 51
90.00099210356344
  0
ARC
  5
A74
330
1F
100
AcDbEntity
  8
Torblatt-AM_0
100
AcDbCircle
 10
689.8623708864215
 20
361.4968041853852
 30
0.0
 40
0.2456452640195875
100
AcDbArc
 50
22.1077024600258
 51
113.2336988161274
  0
LINE
  5
A75
330
1F
100
AcDbEntity
  8
Torblatt-AM_0
100
AcDbLine
 10
690.7848267792917
 20
365.5340666931031
 30
0.0
 11
691.868320012019
 21
368.2027454536312
 31
0.0
  0
LINE
  5
A76
330
1F
100
AcDbEntity
  8
Torblatt-AM_0
100
AcDbLine
 10
681.6646008729199
 20
367.0176859062071
 30
0.0
 11
689.7654681443432
 21
365.6829590957518
 31
0.0
  0
ARC
  5
A77
330
1F
100
AcDbEntity
  8
Torblatt-AM_0
100
AcDbCircle
 10
681.118396809632
 20
363.7027139823716
 30
0.0
 40
2.609637321563587
100
AcDbArc
 50
80.64380627089544
 51
279.3561937291053
  0
LINE
  5
A78
330
1F
100
AcDbEntity
  8
Torblatt-AM_0
100
AcDbLine
 10
681.5426497697099
 20
361.1277933280821
 30
0.0
 11
689.5840316056465
 21
362.4527449767938
 31
0.0
  0
LINE
  5
A79
330
1F
100
AcDbEntity
  8
Torblatt-AM_0
100
AcDbLine
 10
691.1183743714549
 20
368.3491940658448
 30
0.0
 11
691.1183743714549
 21
382.6674814384336
 31
0.0
  0
LINE
  5
A7A
330
1F
100
AcDbEntity
  8
Torblatt-AM_0
100
AcDbLine
 10
690.0899558305009
 20
361.5892524879333
 30
0.0
 11
691.1183743714549
 21
359.0562935035582
 31
0.0
  0
ARC
  5
A7B
330
1F
100
AcDbEntity
  8
Torblatt-AM_0
100
AcDbCircle
 10
690.0830529195112
 20
382.6674330658461
 30
0.0
 40
1.035321453322715
100
AcDbArc
 50
0.0
 51
89.99402419090611
  0
ARC
  5
A7C
330
1F
100
AcDbEntity
  8
Torblatt-AM_0
100
AcDbCircle
 10
681.1183551564147
 20
363.7027437847086
 30
0.0
 40
3.359646655792845
100
AcDbArc
 50
80.64272556837378
 51
279.357274431627
  0
LINE
  5
A7D
330
1F
100
AcDbEntity
  8
Torblatt-AM_0
100
AcDbLine
 10
681.6646008729199
 20
360.3878016631957
 30
0.0
 11
689.7654681443432
 21
361.7225284736508
 31
0.0
  0
ARC
  5
A7E
330
1F
100
AcDbEntity
  8
Torblatt-AM_0
100
AcDbCircle
 10
655.3007891551337
 20
360.9527897782827
 30
0.0
 40
0.9999318344674483
100
AcDbArc
 50
10.49609579025511
 51
90.00217292476284
  0
ARC
  5
A7F
330
1F
100
AcDbEntity
  8
Torblatt-AM_0
100
AcDbCircle
 10
642.6183133364022
 20
363.7027139823667
 30
0.0
 40
1.74999237061769
100
AcDbArc
 50
90.00000000339651
 51
269.9999999966042
  0
ARC
  5
A80
330
1F
100
AcDbEntity
  8
Torblatt-AM_0
100
AcDbCircle
 10
655.3007542170562
 20
360.9527699443797
 30
0.0
 40
1.749956912604758
100
AcDbArc
 50
10.49817103726873
 51
90.00009770084721
  0
LINE
  5
A81
330
1F
100
AcDbEntity
  8
Torblatt-AM_0
100
AcDbLine
 10
655.3007512330273
 20
361.9527216117735
 30
0.0
 11
642.6183133362988
 21
361.9527216117735
 31
0.0
  0
ARC
  5
A82
330
1F
100
AcDbEntity
  8
Torblatt-AM_0
100
AcDbCircle
 10
642.6183729425384
 20
363.702713982421
 30
0.0
 40
0.9999871272152674
100
AcDbArc
 50
90.00341522993881
 51
269.996584770062
  0
ARC
  5
A83
330
1F
100
AcDbEntity
  8
Torblatt-AM_0
100
AcDbCircle
 10
655.3006623827314
 20
366.4527906093336
 30
0.0
 40
1.000084260310954
100
AcDbArc
 50
270.0050903180573
 51
349.496640950219
  0
LINE
  5
A84
330
1F
100
AcDbEntity
  8
Torblatt-AM_0
100
AcDbLine
 10
660.8808188676094
 20
382.7746505897394
 30
0.0
 11
656.2839894532426
 21
366.2704820793028
 31
0.0
  0
ARC
  5
A85
330
1F
100
AcDbEntity
  8
Torblatt-AM_0
100
AcDbCircle
 10
662.7637919670124
 20
382.5572144168599
 30
0.0
 40
1.895485738093709
100
AcDbArc
 50
89.99828191950625
 51
173.4129490918889
  0
LINE
  5
A86
330
1F
100
AcDbEntity
  8
Torblatt-AM_0
100
AcDbLine
 10
655.3007512330273
 20
364.7027011077757
 30
0.0
 11
642.6183133362988
 21
364.7027011077757
 31
0.0
  0
LINE
  5
A87
330
1F
100
AcDbEntity
  8
Torblatt-AM_0
100
AcDbLine
 10
656.2839894532426
 20
361.1349458854554
 30
0.0
 11
666.8974309205273
 21
303.8703198593011
 31
0.0
  0
LINE
  5
A88
330
1F
100
AcDbEntity
  8
Torblatt-AM_0
100
AcDbLine
 10
661.6211085557197
 20
382.6373214881773
 30
0.0
 11
657.0141463517411
 21
366.0967345397827
 31
0.0
  0
LINE
  5
A89
330
1F
100
AcDbEntity
  8
Torblatt-AM_0
100
AcDbLine
 10
655.3007512330273
 20
362.7027268569821
 30
0.0
 11
642.6183133362988
 21
362.7027268569821
 31
0.0
  0
LINE
  5
A8A
330
1F
100
AcDbEntity
  8
Torblatt-AM_0
100
AcDbLine
 10
690.0831609009959
 20
383.7027545135375
 30
0.0
 11
662.7638488053539
 21
383.7027545135375
 31
0.0
  0
ARC
  5
A8C
330
1F
100
AcDbEntity
  8
Torblatt-AM_0
100
AcDbCircle
 10
655.3007793342884
 20
366.452643265968
 30
0.0
 40
1.749942158434936
100
AcDbArc
 50
269.9990799217719
 51
348.2651342078436
  0
LINE
  5
A8D
330
1F
100
AcDbEntity
  8
Torblatt-AM_0
100
AcDbLine
 10
655.3007512330273
 20
365.4527063529847
 30
0.0
 11
642.6183133362988
 21
365.4527063529847
 31
0.0
  0
ARC
  5
A8E
330
1F
100
AcDbEntity
  8
Torblatt-AM_0
100
AcDbCircle
 10
662.7638647179824
 20
382.5571925120866
 30
0.0
 40
1.145562001561542
100
AcDbArc
 50
90.0007958770014
 51
175.9890392631406
  0
LINE
  5
A8F
330
1F
100
AcDbEntity
  8
Abdeckleiste-AM_0
100
AcDbLine
 10
711.435928845332
 20
300.4527087371701
 30
0.0
 11
711.435928845332
 21
302.4527425926085
 31
0.0
  0
LINE
  5
A90
330
1F
100
AcDbEntity
  8
Abdeckleiste-AM_0
100
AcDbLine
 10
668.4359460114697
 20
300.4527087371701
 30
0.0
 11
711.435928845332
 21
300.4527087371701
 31
0.0
  0
LINE
  5
A91
330
1F
100
AcDbEntity
  8
Abdeckleiste-AM_0
100
AcDbLine
 10
668.4359460114697
 20
300.4527087371701
 30
0.0
 11
668.4359460114697
 21
302.4527425926085
 31
0.0
  0
LINE
  5
A92
330
1F
100
AcDbEntity
  8
Abdeckleiste-AM_0
100
AcDbLine
 10
668.4359460114697
 20
302.4527425926085
 30
0.0
 11
711.435928845332
 21
302.4527425926085
 31
0.0
  0
LINE
  5
A93
330
1F
100
AcDbEntity
  8
Zarge-AM_0
100
AcDbLine
 10
775.4359393357495
 20
306.4527506988403
 30
0.0
 11
775.4359393357495
 21
313.4527201812622
 31
0.0
  0
ARC
  5
A94
330
1F
100
AcDbEntity
  8
Zarge-AM_0
100
AcDbCircle
 10
773.4359119822413
 20
306.4527441962777
 30
0.0
 40
2.000027353580655
100
AcDbArc
 50
270.001521259901
 51
0.0
  0
ARC
  5
A95
330
1F
100
AcDbEntity
  8
Zarge-AM_0
100
AcDbCircle
 10
773.436164122832
 20
306.4524920597721
 30
0.0
 40
3.999749472116156
100
AcDbArc
 50
269.9971488138593
 51
0.0
  0
LINE
  5
A96
330
1F
100
AcDbEntity
  8
Zarge-AM_0
100
AcDbLine
 10
777.4359135865434
 20
306.4527506988403
 30
0.0
 11
777.4359135865434
 21
313.4527201812622
 31
0.0
  0
ARC
  5
A97
330
1F
100
AcDbEntity
  8
Zarge-AM_0
100
AcDbCircle
 10
773.4359119825784
 20
313.4527266842601
 30
0.0
 40
2.000027353181563
100
AcDbArc
 50
0.0000000000008142
 51
89.99847874974799
  0
ARC
  5
A98
330
1F
100
AcDbEntity
  8
Zarge-AM_0
100
AcDbCircle
 10
703.4359657360977
 20
306.4527441967011
 30
0.0
 40
2.00002735403336
100
AcDbArc
 50
180.0000000000004
 51
269.9984787253473
  0
LINE
  5
A99
330
1F
100
AcDbEntity
  8
Zarge-AM_0
100
AcDbLine
 10
773.435965084956
 20
317.4527282874933
 30
0.0
 11
767.438068890498
 21
317.4527282874933
 31
0.0
  0
ARC
  5
A9A
330
1F
100
AcDbEntity
  8
Zarge-AM_0
100
AcDbCircle
 10
773.4360623833763
 20
313.4528770824226
 30
0.0
 40
3.999851206254098
100
AcDbArc
 50
0.0000000000008142
 51
90.001393749053
  0
LINE
  5
A9B
330
1F
100
AcDbEntity
  8
Zarge-AM_0
100
AcDbLine
 10
773.435965084956
 20
315.4527540367005
 30
0.0
 11
767.438068890498
 21
315.4527540367005
 31
0.0
  0
LINE
  5
A9C
330
1F
100
AcDbEntity
  8
Zarge-AM_0
100
AcDbLine
 10
767.438068890498
 20
315.4527540367005
 30
0.0
 11
767.438068890498
 21
317.4527282874933
 31
0.0
  0
LINE
  5
A9D
330
1F
100
AcDbEntity
  8
Zarge-AM_0
100
AcDbLine
 10
703.4359126328686
 20
302.4527425926085
 30
0.0
 11
773.435965084956
 21
302.4527425926085
 31
0.0
  0
ARC
  5
A9E
330
1F
100
AcDbEntity
  8
Zarge-AM_0
100
AcDbCircle
 10
709.9356801928925
 20
345.4527254264628
 30
0.0
 40
12.99977328206327
100
AcDbArc
 50
143.8703188787748
 51
216.1296811212258
  0
LINE
  5
A9F
330
1F
100
AcDbEntity
  8
Zarge-AM_0
100
AcDbLine
 10
701.4359383820751
 20
338.4705777328369
 30
0.0
 11
701.4359383820751
 21
306.4527506988403
 31
0.0
  0
LINE
  5
AA0
330
1F
100
AcDbEntity
  8
Zarge-AM_0
100
AcDbLine
 10
699.4359641312821
 20
337.7878661315793
 30
0.0
 11
699.4359641312821
 21
306.4527506988403
 31
0.0
  0
ARC
  5
AA1
330
1F
100
AcDbEntity
  8
Zarge-AM_0
100
AcDbCircle
 10
709.9362884239549
 20
345.4527254264653
 30
0.0
 40
11.00028805305958
100
AcDbArc
 50
140.6004771388857
 51
219.399522861115
  0
LINE
  5
AA2
330
1F
100
AcDbEntity
  8
Zarge-AM_0
100
AcDbLine
 10
767.438068890498
 20
373.4527225654478
 30
0.0
 11
773.435965084956
 21
373.4527225654478
 31
0.0
  0
LINE
  5
AA3
330
1F
100
AcDbEntity
  8
Zarge-AM_0
100
AcDbLine
 10
703.4359126328686
 20
304.4527168434021
 30
0.0
 11
773.435965084956
 21
304.4527168434021
 31
0.0
  0
ARC
  5
AA4
330
1F
100
AcDbEntity
  8
Zarge-AM_0
100
AcDbCircle
 10
773.4360623836355
 20
377.4525737702323
 30
0.0
 40
3.999851205984878
100
AcDbArc
 50
269.9986062472304
 51
0.0
  0
ARC
  5
AA5
330
1F
100
AcDbEntity
  8
Zarge-AM_0
100
AcDbCircle
 10
773.4359119829949
 20
377.4527241682448
 30
0.0
 40
2.000027352765186
100
AcDbArc
 50
270.0015212383251
 51
0.0
  0
LINE
  5
AA6
330
1F
100
AcDbEntity
  8
Zarge-AM_0
100
AcDbLine
 10
701.4359383820751
 20
384.4527001541016
 30
0.0
 11
701.4359383820751
 21
352.4348731201048
 31
0.0
  0
ARC
  5
AA7
330
1F
100
AcDbEntity
  8
Zarge-AM_0
100
AcDbCircle
 10
703.4359170836337
 20
384.4527553076663
 30
0.0
 40
3.999952952732106
100
AcDbArc
 50
90.00006375326575
 51
180.0000000000004
  0
LINE
  5
AA8
330
1F
100
AcDbEntity
  8
Zarge-AM_0
100
AcDbLine
 10
775.4359393357495
 20
377.4527306716795
 30
0.0
 11
775.4359393357495
 21
384.4527001541016
 31
0.0
  0
LINE
  5
AA9
330
1F
100
AcDbEntity
  8
Zarge-AM_0
100
AcDbLine
 10
699.4359641312821
 20
384.4527001541016
 30
0.0
 11
699.4359641312821
 21
353.1175847213621
 31
0.0
  0
ARC
  5
AAA
330
1F
100
AcDbEntity
  8
Zarge-AM_0
100
AcDbCircle
 10
773.4359119822729
 20
384.4527066568557
 30
0.0
 40
2.000027353487094
100
AcDbArc
 50
0.0000000000008142
 51
89.99847874099531
  0
ARC
  5
AAB
330
1F
100
AcDbEntity
  8
Zarge-AM_0
100
AcDbCircle
 10
703.4359170836677
 20
306.4526955454187
 30
0.0
 40
3.999952952812778
100
AcDbArc
 50
180.0000000000004
 51
269.9999362462506
  0
LINE
  5
AAC
330
1F
100
AcDbEntity
  8
Zarge-AM_0
100
AcDbLine
 10
767.438068890498
 20
375.4526968162415
 30
0.0
 11
773.435965084956
 21
375.4526968162415
 31
0.0
  0
LINE
  5
AAD
330
1F
100
AcDbEntity
  8
Zarge-AM_0
100
AcDbLine
 10
767.438068890498
 20
373.4527225654478
 30
0.0
 11
767.438068890498
 21
375.4526968162415
 31
0.0
  0
LINE
  5
AAE
330
1F
100
AcDbEntity
  8
Zarge-AM_0
100
AcDbLine
 10
777.4359135865434
 20
377.4527306716795
 30
0.0
 11
777.4359135865434
 21
384.4527001541016
 31
0.0
  0
ARC
  5
AAF
330
1F
100
AcDbEntity
  8
Zarge-AM_0
100
AcDbCircle
 10
773.4361641233045
 20
384.4529587937522
 30
0.0
 40
3.999749471600845
100
AcDbArc
 50
0.0000000000008142
 51
90.00285119291254
  0
ARC
  5
AB0
330
1F
100
AcDbEntity
  8
Zarge-AM_0
100
AcDbCircle
 10
703.4359657351887
 20
384.4527066573107
 30
0.0
 40
2.000027353124436
100
AcDbArc
 50
90.00152124861562
 51
180.0000000000004
  0
LINE
  5
AB1
330
1F
100
AcDbEntity
  8
Zarge-AM_0
100
AcDbLine
 10
773.435965084956
 20
386.4527340095397
 30
0.0
 11
703.4359126328686
 21
386.4527340095397
 31
0.0
  0
LINE
  5
AB2
330
1F
100
AcDbEntity
  8
Zarge-AM_0
100
AcDbLine
 10
773.435965084956
 20
388.4527082603331
 30
0.0
 11
703.4359126328686
 21
388.4527082603331
 31
0.0
  0
LINE
  5
AB7
330
1F
100
AcDbEntity
  8
Torblatt-AM_0
100
AcDbLine
 10
690.0831609009959
 20
384.4527001541016
 30
0.0
 11
-1234.778961634709
 21
384.4527001541016
 31
0.0
  0
LINE
  5
ABB
330
1F
100
AcDbEntity
  8
Torblatt-AM_0
100
AcDbLine
 10
691.1183743714549
 20
368.3491940658448
 30
0.0
 11
657.6415448426464
 21
368.3491940658448
 31
0.0
  0
LINE
  5
ABC
330
1F
100
AcDbEntity
  8
Torblatt-AM_0
100
AcDbLine
 10
691.1183743714549
 20
359.0562935035582
 30
0.0
 11
657.4320941209053
 21
359.0562935035582
 31
0.0
  0
LINE
  5
ADC
330
1F
100
AcDbEntity
  8
Torblatt-AM_0
100
AcDbLine
 10
-1225.381693339421
 20
360.3430981796143
 30
0.0
 11
-1201.889357066227
 21
360.3430981796143
 31
0.0
  0
LINE
  5
ADD
330
1F
100
AcDbEntity
  8
Torblatt-AM_0
100
AcDbLine
 10
-1201.97888324268
 20
367.0623893897885
 30
0.0
 11
-1225.381693339421
 21
367.0623893897885
 31
0.0
  0
LINE
  5
AE0
330
1F
100
AcDbEntity
  8
AM_0
100
AcDbLine
 10
-1250.064086413456
 20
388.4527082603331
 30
0.0
 11
-1250.064086413456
 21
488.4526724975461
 31
0.0
  0
LINE
  5
AE1
330
1F
100
AcDbEntity
  8
AM_0
100
AcDbLine
 10
-1432.56410071857
 20
188.452720181262
 30
0.0
 11
-1332.564076876713
 21
188.452720181262
 31
0.0
  0
LINE
  5
AE2
330
1F
100
AcDbEntity
  8
AM_0
100
AcDbLine
 10
-1332.564076876713
 20
188.452720181262
 30
0.0
 11
-1332.564076876713
 21
388.4527082603331
 31
0.0
  0
LINE
  5
AE4
330
1F
100
AcDbEntity
  8
AM_0
100
AcDbLine
 10
-1332.564076876713
 20
388.4527082603331
 30
0.0
 11
-1250.064086413456
 21
388.4527082603331
 31
0.0
  0
LINE
  5
AE9
330
1F
100
AcDbEntity
  8
Torblatt-AM_0
100
AcDbLine
 10
-1236.564120745732
 20
359.2027421157713
 30
0.0
 11
-1235.480627513005
 21
361.8713612716553
 31
0.0
  0
ARC
  5
AEA
330
1F
100
AcDbEntity
  8
Torblatt-AM_0
100
AcDbCircle
 10
-1234.558178076535
 20
361.4968843151004
 30
0.0
 40
0.9955631340989828
100
AcDbArc
 50
73.76448919069645
 51
157.9048479624895
  0
LINE
  5
AEB
330
1F
100
AcDbEntity
  8
Torblatt-AM_0
100
AcDbLine
 10
-1234.27983233936
 20
362.4527449767938
 30
0.0
 11
-1226.238331294132
 21
361.1277933280821
 31
0.0
  0
ARC
  5
AEC
330
1F
100
AcDbEntity
  8
Torblatt-AM_0
100
AcDbCircle
 10
-1225.81407833406
 20
363.7027139823716
 30
0.0
 40
2.609637321562594
100
AcDbArc
 50
260.6438062710286
 51
99.35619372897207
  0
LINE
  5
AED
330
1F
100
AcDbEntity
  8
Torblatt-AM_0
100
AcDbLine
 10
-1234.27983233936
 20
364.9527425926087
 30
0.0
 11
-1226.238331294132
 21
366.2776346366761
 31
0.0
  0
ARC
  5
AEE
330
1F
100
AcDbEntity
  8
Torblatt-AM_0
100
AcDbCircle
 10
-1234.558264896448
 20
365.9084623163271
 30
0.0
 40
0.9954520978685698
100
AcDbArc
 50
202.092694133154
 51
286.2425766830832
  0
LINE
  5
AEF
330
1F
100
AcDbEntity
  8
Torblatt-AM_0
100
AcDbLine
 10
-1236.564120745732
 20
368.2027454536312
 30
0.0
 11
-1235.480627513005
 21
365.5340666931031
 31
0.0
  0
LINE
  5
AF0
330
1F
100
AcDbEntity
  8
Torblatt-AM_0
100
AcDbLine
 10
-1236.564120745732
 20
382.6674814384336
 30
0.0
 11
-1236.564120745732
 21
368.2027454536312
 31
0.0
  0
ARC
  5
AF1
330
1F
100
AcDbEntity
  8
Torblatt-AM_0
100
AcDbCircle
 10
-1234.778992545572
 20
382.6675719516384
 30
0.0
 40
1.785128202730735
100
AcDbArc
 50
89.99900787961022
 51
180.0000000000004
  0
ARC
  5
AF3
330
1F
100
AcDbEntity
  8
Torblatt-AM_0
100
AcDbCircle
 10
-1207.459592701112
 20
382.5572144167716
 30
0.0
 40
1.89548573835609
100
AcDbArc
 50
6.58705087490148
 51
89.99811467097989
  0
LINE
  5
AF4
330
1F
100
AcDbEntity
  8
Torblatt-AM_0
100
AcDbLine
 10
-1200.979790186954
 20
366.2704820793028
 30
0.0
 11
-1205.576619601322
 21
382.7746505897394
 31
0.0
  0
ARC
  5
AF5
330
1F
100
AcDbEntity
  8
Torblatt-AM_0
100
AcDbCircle
 10
-1199.996463116647
 20
366.452790609404
 30
0.0
 40
1.000084260366149
100
AcDbArc
 50
190.5033591306604
 51
269.9949096935744
  0
LINE
  5
AF6
330
1F
100
AcDbEntity
  8
Torblatt-AM_0
100
AcDbLine
 10
-1187.314114070009
 20
365.4527063529847
 30
0.0
 11
-1199.99655196674
 21
365.4527063529847
 31
0.0
  0
ARC
  5
AF7
330
1F
100
AcDbEntity
  8
Torblatt-AM_0
100
AcDbCircle
 10
-1187.314114070255
 20
363.7027139823667
 30
0.0
 40
1.74999237061769
100
AcDbArc
 50
270.000000008022
 51
89.9999999919787
  0
LINE
  5
AF8
330
1F
100
AcDbEntity
  8
Torblatt-AM_0
100
AcDbLine
 10
-1187.314114070009
 20
361.9527216117735
 30
0.0
 11
-1199.99655196674
 21
361.9527216117735
 31
0.0
  0
ARC
  5
AF9
330
1F
100
AcDbEntity
  8
Torblatt-AM_0
100
AcDbCircle
 10
-1199.99658988905
 20
360.9527897782129
 30
0.0
 40
0.9999318342800908
100
AcDbArc
 50
89.99782706358031
 51
169.5039042036815
  0
LINE
  5
AFA
330
1F
100
AcDbEntity
  8
Torblatt-AM_0
100
AcDbLine
 10
-1211.593112444949
 20
303.8703198593011
 30
0.0
 11
-1200.979790186954
 21
361.1349458854554
 31
0.0
  0
ARC
  5
AFB
330
1F
100
AcDbEntity
  8
Torblatt-AM_0
100
AcDbCircle
 10
-1213.297680726834
 20
304.1863617927223
 30
0.0
 40
1.733619200194854
100
AcDbArc
 50
269.9998232032613
 51
349.4961369586
  0
LINE
  5
AFD
330
1F
100
AcDbEntity
  8
Torblatt-AM_0
100
AcDbLine
 10
-1224.525174593998
 20
303.2027478378166
 30
0.0
 11
-1224.525174593998
 21
302.4527425926085
 31
0.0
  0
LINE
  5
AFE
330
1F
100
AcDbEntity
  8
Torblatt-AM_0
100
AcDbLine
 10
-1213.297686076237
 20
303.2027478378166
 30
0.0
 11
-1224.525174593998
 21
303.2027478378166
 31
0.0
  0
ARC
  5
AFF
330
1F
100
AcDbEntity
  8
Torblatt-AM_0
100
AcDbCircle
 10
-1213.297554150494
 20
304.1860884334182
 30
0.0
 40
0.9833406044509358
100
AcDbArc
 50
269.9923131534489
 51
349.5061905170641
  0
LINE
  5
B00
330
1F
100
AcDbEntity
  8
Torblatt-AM_0
100
AcDbLine
 10
-1212.330660319401
 20
304.0069933097718
 30
0.0
 11
-1201.717218852116
 21
361.2716193359251
 31
0.0
  0
ARC
  5
B01
330
1F
100
AcDbEntity
  8
Torblatt-AM_0
100
AcDbCircle
 10
-1199.996554951625
 20
360.9527699451768
 30
0.0
 40
1.749956911807814
100
AcDbArc
 50
89.99990227112174
 51
169.5018289497361
  0
LINE
  5
B02
330
1F
100
AcDbEntity
  8
Torblatt-AM_0
100
AcDbLine
 10
-1187.314114070009
 20
362.7027268569821
 30
0.0
 11
-1199.99655196674
 21
362.7027268569821
 31
0.0
  0
ARC
  5
B03
330
1F
100
AcDbEntity
  8
Torblatt-AM_0
100
AcDbCircle
 10
-1187.31417367642
 20
363.7027139824216
 30
0.0
 40
0.99998712721613
100
AcDbArc
 50
270.0034152396209
 51
89.99658476037986
  0
LINE
  5
B04
330
1F
100
AcDbEntity
  8
Torblatt-AM_0
100
AcDbLine
 10
-1187.314114070009
 20
364.7027011077757
 30
0.0
 11
-1199.99655196674
 21
364.7027011077757
 31
0.0
  0
ARC
  5
B05
330
1F
100
AcDbEntity
  8
Torblatt-AM_0
100
AcDbCircle
 10
-1199.996580068125
 20
366.4526432658798
 30
0.0
 40
1.749942158329495
100
AcDbArc
 50
191.7348657955329
 51
270.0009200822938
  0
LINE
  5
B06
330
1F
100
AcDbEntity
  8
Torblatt-AM_0
100
AcDbLine
 10
-1201.709947085453
 20
366.0967345397827
 30
0.0
 11
-1206.316909289433
 21
382.6373214881773
 31
0.0
  0
ARC
  5
B07
330
1F
100
AcDbEntity
  8
Torblatt-AM_0
100
AcDbCircle
 10
-1207.459665466629
 20
382.5571925045693
 30
0.0
 40
1.145562016939029
100
AcDbArc
 50
4.010961027007486
 51
89.99324107189471
  0
LINE
  5
B08
330
1F
100
AcDbEntity
  8
Torblatt-AM_0
100
AcDbLine
 10
-1207.459530329777
 20
383.7027545135375
 30
0.0
 11
-1234.778961634709
 21
383.7027545135375
 31
0.0
  0
ARC
  5
B09
330
1F
100
AcDbEntity
  8
Torblatt-AM_0
100
AcDbCircle
 10
-1234.77885365296
 20
382.6674330656919
 30
0.0
 40
1.03532145347679
100
AcDbArc
 50
90.0059758236817
 51
180.0000000000004
  0
LINE
  5
B0A
330
1F
100
AcDbEntity
  8
Torblatt-AM_0
100
AcDbLine
 10
-1235.814175105168
 20
382.6674814384336
 30
0.0
 11
-1235.814175105168
 21
368.3491940658448
 31
0.0
  0
LINE
  5
B0B
330
1F
100
AcDbEntity
  8
Torblatt-AM_0
100
AcDbLine
 10
-1235.814175105168
 20
368.3491940658448
 30
0.0
 11
-1234.785756564213
 21
365.8161754768248
 31
0.0
  0
ARC
  5
B0C
330
1F
100
AcDbEntity
  8
Torblatt-AM_0
100
AcDbCircle
 10
-1234.558241755401
 20
365.9085539250066
 30
0.0
 40
0.2455539979865622
100
AcDbArc
 50
202.0987600385832
 51
293.2606526757749
  0
LINE
  5
B0D
330
1F
100
AcDbEntity
  8
Torblatt-AM_0
100
AcDbLine
 10
-1234.461268878056
 20
365.6829590957518
 30
0.0
 11
-1226.360282397343
 21
367.0176859062071
 31
0.0
  0
ARC
  5
B0E
330
1F
100
AcDbEntity
  8
Torblatt-AM_0
100
AcDbCircle
 10
-1225.814139219854
 20
363.7027437847086
 30
0.0
 40
3.359629985474281
100
AcDbArc
 50
260.6444510195507
 51
99.35554898044992
  0
LINE
  5
B0F
330
1F
100
AcDbEntity
  8
Torblatt-AM_0
100
AcDbLine
 10
-1234.461268878056
 20
361.7225284736508
 30
0.0
 11
-1226.360282397343
 21
360.3878016631957
 31
0.0
  0
ARC
  5
B10
330
1F
100
AcDbEntity
  8
Torblatt-AM_0
100
AcDbCircle
 10
-1234.558171619645
 20
361.4968041850801
 30
0.0
 40
0.245645264107378
100
AcDbArc
 50
66.76630131665877
 51
157.892297792273
  0
LINE
  5
B11
330
1F
100
AcDbEntity
  8
Torblatt-AM_0
100
AcDbLine
 10
-1235.814175105168
 20
359.0562935035582
 30
0.0
 11
-1234.785756564213
 21
361.5892524879333
 31
0.0
  0
LINE
  5
B12
330
1F
100
AcDbEntity
  8
Torblatt-AM_0
100
AcDbLine
 10
-1235.814175105168
 20
304.2379613082763
 30
0.0
 11
-1235.814175105168
 21
359.0562935035582
 31
0.0
  0
ARC
  5
B13
330
1F
100
AcDbEntity
  8
Torblatt-AM_0
100
AcDbCircle
 10
-1234.778853649832
 20
304.2380692935223
 30
0.0
 40
1.035321461336855
100
AcDbArc
 50
180.0000000000004
 51
269.9940240032487
  0
LINE
  5
B14
330
1F
100
AcDbEntity
  8
Torblatt-AM_0
100
AcDbLine
 10
-1228.60308597095
 20
303.2027478378166
 30
0.0
 11
-1234.778961634709
 21
303.2027478378166
 31
0.0
  0
LINE
  5
B15
330
1F
100
AcDbEntity
  8
Torblatt-AM_0
100
AcDbLine
 10
-1228.60308597095
 20
302.4527425926085
 30
0.0
 11
-1228.60308597095
 21
303.2027478378166
 31
0.0
  0
ARC
  5
B17
330
1F
100
AcDbEntity
  8
Torblatt-AM_0
100
AcDbCircle
 10
-1234.778992545256
 20
304.2378707952613
 30
0.0
 40
1.785128202920587
100
AcDbArc
 50
180.0000000000004
 51
270.0009921102191
  0
LINE
  5
B18
330
1F
100
AcDbEntity
  8
Torblatt-AM_0
100
AcDbLine
 10
-1236.564120745732
 20
304.2379613082763
 30
0.0
 11
-1236.564120745732
 21
359.2027421157713
 31
0.0
  0
LINE
  5
B19
330
1F
100
AcDbEntity
  8
Torblatt-AM_0
100
AcDbLine
 10
-1228.60308597095
 20
303.2027478378166
 30
0.0
 11
-1224.525174593998
 21
303.2027478378166
 31
0.0
  0
LINE
  5
B1A
330
1F
100
AcDbEntity
  8
Abdeckleiste-AM_0
100
AcDbLine
 10
-1256.564101672245
 20
302.4527425926085
 30
0.0
 11
-1213.564118838383
 21
302.4527425926085
 31
0.0
  0
LINE
  5
B1B
330
1F
100
AcDbEntity
  8
Abdeckleiste-AM_0
100
AcDbLine
 10
-1213.564118838383
 20
300.4527087371701
 30
0.0
 11
-1213.564118838383
 21
302.4527425926085
 31
0.0
  0
LINE
  5
B1C
330
1F
100
AcDbEntity
  8
Abdeckleiste-AM_0
100
AcDbLine
 10
-1256.564101672245
 20
300.4527087371701
 30
0.0
 11
-1213.564118838383
 21
300.4527087371701
 31
0.0
  0
LINE
  5
B1D
330
1F
100
AcDbEntity
  8
Abdeckleiste-AM_0
100
AcDbLine
 10
-1256.564101672245
 20
300.4527087371701
 30
0.0
 11
-1256.564101672245
 21
302.4527425926085
 31
0.0
  0
ARC
  5
B1E
330
1F
100
AcDbEntity
  8
Zarge-AM_0
100
AcDbCircle
 10
-1318.564084809101
 20
306.4527441963473
 30
0.0
 40
2.000027353650005
100
AcDbArc
 50
180.0000000000004
 51
269.9984787385435
  0
LINE
  5
B1F
330
1F
100
AcDbEntity
  8
Zarge-AM_0
100
AcDbLine
 10
-1318.564137911869
 20
304.4527168434021
 30
0.0
 11
-1248.564085459782
 21
304.4527168434021
 31
0.0
  0
ARC
  5
B20
330
1F
100
AcDbEntity
  8
Zarge-AM_0
100
AcDbCircle
 10
-1248.564138562675
 20
306.4527441965346
 30
0.0
 40
2.000027353837591
100
AcDbArc
 50
270.0015212650241
 51
0.0
  0
LINE
  5
B21
330
1F
100
AcDbEntity
  8
Zarge-AM_0
100
AcDbLine
 10
-1246.564111208988
 20
306.4527506988403
 30
0.0
 11
-1246.564111208988
 21
338.4705777328369
 31
0.0
  0
ARC
  5
B22
330
1F
100
AcDbEntity
  8
Zarge-AM_0
100
AcDbCircle
 10
-1255.064461251003
 20
345.4527254264655
 30
0.0
 40
11.0002880531631
100
AcDbArc
 50
320.6004771393315
 51
39.39952286066928
  0
LINE
  5
B23
330
1F
100
AcDbEntity
  8
Zarge-AM_0
100
AcDbLine
 10
-1246.564111208988
 20
352.4348731201048
 30
0.0
 11
-1246.564111208988
 21
384.4527001541016
 31
0.0
  0
ARC
  5
B24
330
1F
100
AcDbEntity
  8
Zarge-AM_0
100
AcDbCircle
 10
-1248.564138562205
 20
384.4527066570378
 30
0.0
 40
2.000027353227252
100
AcDbArc
 50
0.0000000000008142
 51
89.99847874843709
  0
LINE
  5
B25
330
1F
100
AcDbEntity
  8
Zarge-AM_0
100
AcDbLine
 10
-1248.564085459782
 20
386.4527340095397
 30
0.0
 11
-1318.564137911869
 21
386.4527340095397
 31
0.0
  0
ARC
  5
B26
330
1F
100
AcDbEntity
  8
Zarge-AM_0
100
AcDbCircle
 10
-1318.564084809881
 20
384.4527066573548
 30
0.0
 40
2.000027352889989
100
AcDbArc
 50
90.00152123909755
 51
180.0000000000004
  0
LINE
  5
B27
330
1F
100
AcDbEntity
  8
Zarge-AM_0
100
AcDbLine
 10
-1320.564112162663
 20
384.4527001541016
 30
0.0
 11
-1320.564112162663
 21
377.4527306716795
 31
0.0
  0
ARC
  5
B28
330
1F
100
AcDbEntity
  8
Zarge-AM_0
100
AcDbCircle
 10
-1318.564084809725
 20
377.4527241686241
 30
0.0
 40
2.000027353087523
100
AcDbArc
 50
180.0000000000004
 51
269.9984787564353
  0
LINE
  5
B29
330
1F
100
AcDbEntity
  8
Zarge-AM_0
100
AcDbLine
 10
-1318.564137911869
 20
375.4526968162415
 30
0.0
 11
-1312.566241717411
 21
375.4526968162415
 31
0.0
  0
LINE
  5
B2A
330
1F
100
AcDbEntity
  8
Zarge-AM_0
100
AcDbLine
 10
-1312.566241717411
 20
375.4526968162415
 30
0.0
 11
-1312.566241717411
 21
373.4527225654478
 31
0.0
  0
LINE
  5
B2B
330
1F
100
AcDbEntity
  8
Zarge-AM_0
100
AcDbLine
 10
-1318.564137911869
 20
373.4527225654478
 30
0.0
 11
-1312.566241717411
 21
373.4527225654478
 31
0.0
  0
ARC
  5
B2C
330
1F
100
AcDbEntity
  8
Zarge-AM_0
100
AcDbCircle
 10
-1318.564235210331
 20
377.4525737703711
 30
0.0
 40
3.999851206202582
100
AcDbArc
 50
180.0000000000004
 51
270.0013937496504
  0
LINE
  5
B2D
330
1F
100
AcDbEntity
  8
Zarge-AM_0
100
AcDbLine
 10
-1322.564086413456
 20
384.4527001541016
 30
0.0
 11
-1322.564086413456
 21
377.4527306716795
 31
0.0
  0
ARC
  5
B2E
330
1F
100
AcDbEntity
  8
Zarge-AM_0
100
AcDbCircle
 10
-1318.56433695
 20
384.4529587936138
 30
0.0
 40
3.999749471818193
100
AcDbArc
 50
89.99714881020327
 51
180.0000000000004
  0
LINE
  5
B2F
330
1F
100
AcDbEntity
  8
Zarge-AM_0
100
AcDbLine
 10
-1248.564085459782
 20
388.4527082603331
 30
0.0
 11
-1318.564137911869
 21
388.4527082603331
 31
0.0
  0
ARC
  5
B30
330
1F
100
AcDbEntity
  8
Zarge-AM_0
100
AcDbCircle
 10
-1248.564089910597
 20
384.4527553076844
 30
0.0
 40
3.999952952781843
100
AcDbArc
 50
0.0000000000008142
 51
89.99993624602486
  0
LINE
  5
B31
330
1F
100
AcDbEntity
  8
Zarge-AM_0
100
AcDbLine
 10
-1244.564136958195
 20
353.1175847213621
 30
0.0
 11
-1244.564136958195
 21
384.4527001541016
 31
0.0
  0
ARC
  5
B32
330
1F
100
AcDbEntity
  8
Zarge-AM_0
100
AcDbCircle
 10
-1255.063853019769
 20
345.4527254264628
 30
0.0
 40
12.99977328203502
100
AcDbArc
 50
323.8703188786848
 51
36.12968112131588
  0
LINE
  5
B33
330
1F
100
AcDbEntity
  8
Zarge-AM_0
100
AcDbLine
 10
-1244.564136958195
 20
306.4527506988403
 30
0.0
 11
-1244.564136958195
 21
337.7878661315793
 31
0.0
  0
ARC
  5
B34
330
1F
100
AcDbEntity
  8
Zarge-AM_0
100
AcDbCircle
 10
-1248.56408991063
 20
306.4526955454006
 30
0.0
 40
3.999952952815591
100
AcDbArc
 50
270.0000637544594
 51
0.0
  0
LINE
  5
B35
330
1F
100
AcDbEntity
  8
Zarge-AM_0
100
AcDbLine
 10
-1318.564137911869
 20
302.4527425926085
 30
0.0
 11
-1248.564085459782
 21
302.4527425926085
 31
0.0
  0
ARC
  5
B36
330
1F
100
AcDbEntity
  8
Zarge-AM_0
100
AcDbCircle
 10
-1318.564336949967
 20
306.4524920594715
 30
0.0
 40
3.999749471852006
100
AcDbArc
 50
180.0000000000004
 51
270.0028511893131
  0
LINE
  5
B37
330
1F
100
AcDbEntity
  8
Zarge-AM_0
100
AcDbLine
 10
-1322.564086413456
 20
313.4527201812622
 30
0.0
 11
-1322.564086413456
 21
306.4527506988403
 31
0.0
  0
ARC
  5
B38
330
1F
100
AcDbEntity
  8
Zarge-AM_0
100
AcDbCircle
 10
-1318.564235210446
 20
313.4528770825681
 30
0.0
 40
3.999851206108584
100
AcDbArc
 50
89.99860624869446
 51
180.0000000000004
  0
LINE
  5
B39
330
1F
100
AcDbEntity
  8
Zarge-AM_0
100
AcDbLine
 10
-1312.566241717411
 20
317.4527282874933
 30
0.0
 11
-1318.564137911869
 21
317.4527282874933
 31
0.0
  0
LINE
  5
B3A
330
1F
100
AcDbEntity
  8
Zarge-AM_0
100
AcDbLine
 10
-1312.566241717411
 20
317.4527282874933
 30
0.0
 11
-1312.566241717411
 21
315.4527540367005
 31
0.0
  0
LINE
  5
B3B
330
1F
100
AcDbEntity
  8
Zarge-AM_0
100
AcDbLine
 10
-1312.566241717411
 20
315.4527540367005
 30
0.0
 11
-1318.564137911869
 21
315.4527540367005
 31
0.0
  0
ARC
  5
B3C
330
1F
100
AcDbEntity
  8
Zarge-AM_0
100
AcDbCircle
 10
-1318.564084809438
 20
313.4527266841913
 30
0.0
 40
2.000027353235494
100
AcDbArc
 50
90.00152125179903
 51
180.0000000000004
  0
LINE
  5
B3D
330
1F
100
AcDbEntity
  8
Zarge-AM_0
100
AcDbLine
 10
-1320.564112162663
 20
313.4527201812622
 30
0.0
 11
-1320.564112162663
 21
306.4527506988403
 31
0.0
  0
LINE
  5
B3E
330
1F
100
AcDbEntity
  8
Torblatt-AM_0
100
AcDbLine
 10
-1186.881741976811
 20
365.4527063529847
 30
0.0
 11
642.6183133362988
 21
365.4527063529847
 31
0.0
  0
LINE
  5
B3F
330
1F
100
AcDbEntity
  8
Torblatt-AM_0
100
AcDbLine
 10
-1186.881741976811
 20
361.9527216117735
 30
0.0
 11
642.6183133362988
 21
361.9527216117735
 31
0.0
  0
LINE
  5
B4C
330
1F
100
AcDbEntity
  8
Torblatt-AM_0
100
AcDbLine
 10
-1186.881741976811
 20
365.4527063529847
 30
0.0
 11
-1187.314114070009
 21
365.4527063529847
 31
0.0
  0
LINE
  5
B4D
330
1F
100
AcDbEntity
  8
Torblatt-AM_0
100
AcDbLine
 10
-1186.881741976811
 20
361.9527216117735
 30
0.0
 11
-1187.314114070009
 21
361.9527216117735
 31
0.0
  0
LINE
  5
B5D
330
1F
100
AcDbEntity
  8
Torblatt-AM_0
100
AcDbLine
 10
-1234.778961634709
 20
302.4527425926085
 30
0.0
 11
690.0831609009959
 21
302.4527425926085
 31
0.0
  0
ARC
  5
E4E
330
1F
100
AcDbEntity
  8
Zarge-AM_0
100
AcDbCircle
 10
1533.796528678467
 20
459.1750174535987
 30
0.0
 40
2.0
100
AcDbArc
 50
180.0000000000004
 51
270.0000000000008
  0
LINE
  5
E4F
330
1F
100
AcDbEntity
  8
Zarge-AM_0
100
AcDbLine
 10
1533.796528678467
 20
457.1750174535988
 30
0.0
 11
1603.796528678467
 21
457.1750174535988
 31
0.0
  0
ARC
  5
E50
330
1F
100
AcDbEntity
  8
Zarge-AM_0
100
AcDbCircle
 10
1603.796528678467
 20
459.1750174535987
 30
0.0
 40
2.000000000000111
100
AcDbArc
 50
270.0000000000008
 51
0.0000000000008142
  0
LINE
  5
E51
330
1F
100
AcDbEntity
  8
Zarge-AM_0
100
AcDbLine
 10
1605.796528678467
 20
459.1750174535984
 30
0.0
 11
1605.796528678467
 21
466.1750174535984
 31
0.0
  0
ARC
  5
E52
330
1F
100
AcDbEntity
  8
Zarge-AM_0
100
AcDbCircle
 10
1603.796528678467
 20
466.1750174535984
 30
0.0
 40
2.000000000000111
100
AcDbArc
 50
0.0000000000008142
 51
90.0
  0
LINE
  5
E53
330
1F
100
AcDbEntity
  8
Zarge-AM_0
100
AcDbLine
 10
1603.796528678467
 20
468.1750174535983
 30
0.0
 11
1597.798656338041
 21
468.1750174535983
 31
0.0
  0
LINE
  5
E54
330
1F
100
AcDbEntity
  8
Zarge-AM_0
100
AcDbLine
 10
1597.798656338041
 20
468.1750174535983
 30
0.0
 11
1597.798656338041
 21
470.1750174535984
 31
0.0
  0
LINE
  5
E55
330
1F
100
AcDbEntity
  8
Zarge-AM_0
100
AcDbLine
 10
1603.796528678467
 20
470.1750174535984
 30
0.0
 11
1597.798656338041
 21
470.1750174535984
 31
0.0
  0
ARC
  5
E56
330
1F
100
AcDbEntity
  8
Zarge-AM_0
100
AcDbCircle
 10
1603.796528678467
 20
466.1750174535984
 30
0.0
 40
4.000000000000113
100
AcDbArc
 50
0.0000000000008142
 51
90.0
  0
LINE
  5
E57
330
1F
100
AcDbEntity
  8
Zarge-AM_0
100
AcDbLine
 10
1607.796528678467
 20
459.1750174535984
 30
0.0
 11
1607.796528678467
 21
466.1750174535984
 31
0.0
  0
ARC
  5
E58
330
1F
100
AcDbEntity
  8
Zarge-AM_0
100
AcDbCircle
 10
1603.796528678467
 20
459.1750174535987
 30
0.0
 40
4.000000000000113
100
AcDbArc
 50
270.0000000000008
 51
0.0000000000008142
  0
LINE
  5
E59
330
1F
100
AcDbEntity
  8
Zarge-AM_0
100
AcDbLine
 10
1533.796528678467
 20
455.1750174535988
 30
0.0
 11
1603.796528678467
 21
455.1750174535984
 31
0.0
  0
ARC
  5
E5A
330
1F
100
AcDbEntity
  8
Zarge-AM_0
100
AcDbCircle
 10
1533.796528678467
 20
459.1750174535987
 30
0.0
 40
4.0
100
AcDbArc
 50
180.0000000000004
 51
270.0000000000008
  0
LINE
  5
E5B
330
1F
100
AcDbEntity
  8
Zarge-AM_0
100
AcDbLine
 10
1531.796528678467
 20
473.1750174535988
 30
0.0
 11
1529.796528678467
 21
473.1750174535988
 31
0.0
  0
LINE
  5
E5C
330
1F
100
AcDbEntity
  8
Zarge-AM_0
100
AcDbLine
 10
1529.796528678467
 20
473.1750174535988
 30
0.0
 11
1529.796528678467
 21
459.1750174535987
 31
0.0
  0
LINE
  5
E5D
330
1F
100
AcDbEntity
  8
Zarge-AM_0
100
AcDbLine
 10
1531.796528678467
 20
473.1750174535988
 30
0.0
 11
1531.796528678467
 21
459.1750174535987
 31
0.0
  0
ARC
  5
E5E
330
1F
100
AcDbEntity
  8
Zarge-AM_0
100
AcDbCircle
 10
1533.796528678467
 20
537.1750174535987
 30
0.0
 40
4.0
100
AcDbArc
 50
90.0
 51
180.0000000000004
  0
LINE
  5
E5F
330
1F
100
AcDbEntity
  8
Zarge-AM_0
100
AcDbLine
 10
1603.796528678467
 20
541.1750174535984
 30
0.0
 11
1533.796528678467
 21
541.1750174535987
 31
0.0
  0
ARC
  5
E60
330
1F
100
AcDbEntity
  8
Zarge-AM_0
100
AcDbCircle
 10
1603.796528678467
 20
537.1750174535984
 30
0.0
 40
4.000000000000028
100
AcDbArc
 50
0.0
 51
90.0
  0
LINE
  5
E61
330
1F
100
AcDbEntity
  8
Zarge-AM_0
100
AcDbLine
 10
1607.796528678467
 20
530.1750174535984
 30
0.0
 11
1607.796528678467
 21
537.1750174535984
 31
0.0
  0
ARC
  5
E62
330
1F
100
AcDbEntity
  8
Zarge-AM_0
100
AcDbCircle
 10
1603.796528678467
 20
530.1750174535984
 30
0.0
 40
4.0
100
AcDbArc
 50
270.0000000000008
 51
0.0000000000008142
  0
LINE
  5
E63
330
1F
100
AcDbEntity
  8
Zarge-AM_0
100
AcDbLine
 10
1597.798656338041
 20
526.1750174535984
 30
0.0
 11
1603.796528678467
 21
526.1750174535984
 31
0.0
  0
LINE
  5
E64
330
1F
100
AcDbEntity
  8
Zarge-AM_0
100
AcDbLine
 10
1597.798656338041
 20
526.1750174535984
 30
0.0
 11
1597.798656338041
 21
528.1750174535984
 31
0.0
  0
LINE
  5
E65
330
1F
100
AcDbEntity
  8
Zarge-AM_0
100
AcDbLine
 10
1597.798656338041
 20
528.1750174535984
 30
0.0
 11
1603.796528678467
 21
528.1750174535984
 31
0.0
  0
ARC
  5
E66
330
1F
100
AcDbEntity
  8
Zarge-AM_0
100
AcDbCircle
 10
1603.796528678467
 20
530.1750174535984
 30
0.0
 40
2.0
100
AcDbArc
 50
270.0000000000008
 51
0.0000000000008142
  0
LINE
  5
E67
330
1F
100
AcDbEntity
  8
Zarge-AM_0
100
AcDbLine
 10
1605.796528678467
 20
530.1750174535984
 30
0.0
 11
1605.796528678467
 21
537.1750174535984
 31
0.0
  0
ARC
  5
E68
330
1F
100
AcDbEntity
  8
Zarge-AM_0
100
AcDbCircle
 10
1603.796528678467
 20
537.1750174535984
 30
0.0
 40
2.000000000000026
100
AcDbArc
 50
0.0
 51
90.0
  0
LINE
  5
E69
330
1F
100
AcDbEntity
  8
Zarge-AM_0
100
AcDbLine
 10
1603.796528678467
 20
539.1750174535984
 30
0.0
 11
1533.796528678467
 21
539.1750174535989
 31
0.0
  0
ARC
  5
E6A
330
1F
100
AcDbEntity
  8
Zarge-AM_0
100
AcDbCircle
 10
1533.796528678467
 20
537.1750174535987
 30
0.0
 40
2.0
100
AcDbArc
 50
90.0
 51
180.0000000000004
  0
LINE
  5
E6B
330
1F
100
AcDbEntity
  8
Zarge-AM_0
100
AcDbLine
 10
1529.796528678467
 20
523.1750174535989
 30
0.0
 11
1531.796528678467
 21
523.1750174535989
 31
0.0
  0
LINE
  5
E6C
330
1F
100
AcDbEntity
  8
Zarge-AM_0
100
AcDbLine
 10
1529.796528678467
 20
537.1750174535987
 30
0.0
 11
1529.796528678467
 21
523.1750174535989
 31
0.0
  0
LINE
  5
E6D
330
1F
100
AcDbEntity
  8
Zarge-AM_0
100
AcDbLine
 10
1531.796528678467
 20
537.1750174535987
 30
0.0
 11
1531.796528678467
 21
523.1750174535989
 31
0.0
  0
ARC
  5
E6E
330
1F
100
AcDbEntity
  8
Zarge-AM_0
100
AcDbCircle
 10
1540.296528678467
 20
498.1750174535988
 30
0.0
 40
13.0000000000001
100
AcDbArc
 50
143.871072528061
 51
216.1289274719387
  0
ARC
  5
E6F
330
1F
100
AcDbEntity
  8
Zarge-AM_0
100
AcDbCircle
 10
1540.296528678467
 20
498.1750174535988
 30
0.0
 40
11.00000000000006
100
AcDbArc
 50
140.5994312462618
 51
219.400568753738
  0
LINE
  5
E70
330
1F
100
AcDbEntity
  8
Zarge-AM_0
100
AcDbLine
 10
1529.796528678467
 20
523.1750174535989
 30
0.0
 11
1529.796528678467
 21
505.8398723119768
 31
0.0
  0
LINE
  5
E71
330
1F
100
AcDbEntity
  8
Zarge-AM_0
100
AcDbLine
 10
1531.796528678467
 20
523.1750174535989
 30
0.0
 11
1531.796528678467
 21
505.1571374754833
 31
0.0
  0
LINE
  5
E72
330
1F
100
AcDbEntity
  8
Zarge-AM_0
100
AcDbLine
 10
1529.796528678467
 20
490.5101625952209
 30
0.0
 11
1529.796528678467
 21
473.1750174535988
 31
0.0
  0
LINE
  5
E73
330
1F
100
AcDbEntity
  8
Zarge-AM_0
100
AcDbLine
 10
1531.796528678467
 20
491.1928974317143
 30
0.0
 11
1531.796528678467
 21
473.1750174535988
 31
0.0
  0
LINE
  5
F82
330
1F
100
AcDbEntity
  8
Torblatt-AM_7
  6
AM_DIN_G_W050x2
100
AcDbLine
 10
-272.5640864134566
 20
414.4527001541016
 30
0.0
 11
-272.5640864134566
 21
272.4527425926085
 31
0.0
1001
GENIUS_GENODEF_13
1002
{
1000
HIER
1070
     0
1002
}
1002
{
1000
MANEDIT
1070
     0
1002
}
1002
{
1000
NOSEL
1070
     0
1002
}
1002
{
1000
BEHIND
1070
     0
1002
}
1002
{
1000
REACTOR
1002
}
1001
GENIUS_GENOBJ-N-CEN_13
1002
{
1000
OWNER
1000
GEN
1002
}
  0
LWPOLYLINE
  5
F90
330
1F
100
AcDbEntity
  8
AM_VIEWS
100
AcDbPolyline
 90
        4
 70
     1
 43
0.0
 10
-1645.384899970512
 20
878.761275344622
 10
2230.665179361465
 20
878.761275344622
 10
2230.665179361465
 20
-1738.069112390895
 10
-1645.384899970512
 20
-1738.069112390895
1001
GENIUS_GENODEF_13
1002
{
1000
HIER
1070
     0
1002
}
1002
{
1000
MANEDIT
1070
     0
1002
}
1002
{
1000
NOSEL
1070
     0
1002
}
1002
{
1000
BEHIND
1070
     0
1002
}
1002
{
1000
REACTOR
1002
}
1001
GENIUS_GENOBJ-N-SDF_13
1002
{
1000
OWNER
1000
GEN
1002
}
1001
GENIUS_GENSCREG_15
1040
10.0
1040
1.0
1011
-1645.384899970512
1021
-1738.069112390895
1031
0.0
1011
2230.665179361465
1021
878.761275344622
1031
0.0
1070
     2
  0
POINT
  5
F92
330
1F
100
AcDbEntity
  8
0
 60
     1
100
AcDbPoint
 10
0.0
 20
0.0
 30
0.0
1001
GENIUS_GENOBJ-N-SDF_13
1002
{
1000
OWNER
1000
GEN
1002
}
1001
GENIUS_GENOENT_13
1002
{
1000
MYREF
1005
F92
1002
}
1002
{
1000
GRP
1005
0
1002
}
1001
GENIUS_GENOLIS_13
1002
{
1000
ENT
1005
4C8
1002
}
1001
GENIUS_GENODEF_13
1002
{
1000
HIER
1070
     1
1002
}
1002
{
1000
MANEDIT
1070
     0
1002
}
1002
{
1000
NOSEL
1070
     0
1002
}
1002
{
1000
BEHIND
1070
     0
1002
}
1002
{
1000
REACTOR
1002
}
  0
DIMENSION
  5
124C
330
1F
100
AcDbEntity
  8
AM_5
100
AcDbDimension
  2
*D9
 10
-1322.564086413456
 20
-52.13407925010688
 30
0.0
 11
-272.5640864134563
 21
-24.63407925010686
 31
0.0
 70
    32
  1
BWKB
 71
     5
 42
2099.999999999999
  3
ISO-35
100
AcDbAlignedDimension
 13
777.4359135865433
 23
309.9527354400513
 33
0.0
 14
-1322.564086413456
 24
309.9527354400513
 34
0.0
100
AcDbRotatedDimension
1001
ACAD
1000
DSTYLE
1002
{
1070
    40
1040
10.0
1002
}
1001
GENIUS_GENDTOL_13
1000

1000
h7
1000

1040
0.0
  0
LINE
  5
12EE
330
1F
100
AcDbEntity
  8
AM_7
  6
AM_DIN_G_W050x2
100
AcDbLine
 10
727.4359135865434
 20
418.4527082603331
 30
0.0
 11
727.4359135865434
 21
272.4527425926085
 31
0.0
1001
GENIUS_GENODEF_13
1002
{
1000
HIER
1070
     0
1002
}
1002
{
1000
MANEDIT
1070
     0
1002
}
1002
{
1000
NOSEL
1070
     0
1002
}
1002
{
1000
BEHIND
1070
     0
1002
}
1002
{
1000
REACTOR
1002
}
1001
GENIUS_GENOBJ-N-CEN_13
1002
{
1000
OWNER
1000
GEN
1002
}
  0
LINE
  5
12F6
330
1F
100
AcDbEntity
  8
AM_7
  6
AM_DIN_G_W050x2
100
AcDbLine
 10
-1272.564086413455
 20
418.4527082603331
 30
0.0
 11
-1272.564086413455
 21
272.4527425926085
 31
0.0
1001
GENIUS_GENODEF_13
1002
{
1000
HIER
1070
     0
1002
}
1002
{
1000
MANEDIT
1070
     0
1002
}
1002
{
1000
NOSEL
1070
     0
1002
}
1002
{
1000
BEHIND
1070
     0
1002
}
1002
{
1000
REACTOR
1002
}
1001
GENIUS_GENOBJ-N-CEN_13
1002
{
1000
OWNER
1000
GEN
1002
}
  0
DIMENSION
  5
12FF
330
1F
100
AcDbEntity
  8
AM_5
100
AcDbDimension
  2
*D10
 10
-1272.564086413455
 20
48.44679065529543
 30
0.0
 11
-272.5640864134563
 21
76.19019342421593
 31
0.0
 70
    32
  1
DB
 71
     5
 42
1999.999999999999
  3
ISO-35
100
AcDbAlignedDimension
 13
727.4359135865431
 23
272.4527425926085
 33
0.0
 14
-1272.564086413455
 24
272.4527425926085
 34
0.0
100
AcDbRotatedDimension
1001
ACAD
1000
DSTYLE
1002
{
1070
    40
1040
10.0
1002
}
1001
GENIUS_GENDTOL_13
1000

1000
h7
1000

1040
0.0
  0
DIMENSION
  5
138F
330
1F
100
AcDbEntity
  8
AM_5
100
AcDbDimension
  2
*D11
 10
787.4359040497997
 20
-152.7149439065786
 30
0.0
 11
-272.5640864134565
 21
-125.1527595711964
 31
0.0
 70
    32
  1
GBB min. 
 71
     5
 42
2119.999980926512
  3
ISO-35
100
AcDbAlignedDimension
 13
-1332.564076876713
 23
188.452720181262
 33
0.0
 14
787.4359040497997
 24
188.452720181262
 34
0.0
100
AcDbRotatedDimension
1001
ACAD
1000
DSTYLE
1002
{
1070
    40
1040
10.0
1002
}
1001
GENIUS_GENDTOL_13
1000

1000
h7
1000

1040
0.0
  0
DIMENSION
  5
1417
330
1F
100
AcDbEntity
  8
AM_5
100
AcDbDimension
  2
*D12
 10
787.4359040497997
 20
-52.13407925010172
 30
0.0
 11
883.1996835773589
 21
-24.63407925010172
 31
0.0
 70
    32
  1
<> 
 71
     5
 42
9.999990463256605
  3
ISO-35
100
AcDbAlignedDimension
 13
777.4359135865433
 23
309.9527354400513
 33
0.0
 14
787.4359040497997
 24
188.452720181262
 34
0.0
100
AcDbRotatedDimension
1001
ACAD
1000
DSTYLE
1002
{
1070
    40
1040
10.0
1002
}
1001
GENIUS_GENDTOL_13
1000

1000
h7
1000

1040
0.0
  0
DIMENSION
  5
14C5
330
1F
100
AcDbEntity
  8
AM_5
100
AcDbDimension
  2
*D13
 10
-1332.564076876713
 20
-52.13407925010691
 30
0.0
 11
-1428.327856404272
 21
-24.63407925010689
 31
0.0
 70
    32
  1
<>
 71
     5
 42
9.999990463256835
  3
ISO-35
100
AcDbAlignedDimension
 13
-1322.564086413456
 23
309.9527354400513
 33
0.0
 14
-1332.564076876713
 24
188.452720181262
 34
0.0
100
AcDbRotatedDimension
1001
ACAD
1000
DSTYLE
1002
{
1070
   271
1070
     0
1070
    40
1040
10.0
1002
}
1001
GENIUS_GENDTOL_13
1000

1000
h7
1000

1040
0.0
  0
HATCH
  5
15A9
330
1F
100
AcDbEntity
  8
AM_8
100
AcDbHatch
 10
0.0
 20
0.0
 30
0.0
210
0.0
220
0.0
230
1.0
  2
_U
 70
     0
 71
     0
 91
        1
 92
        1
 93
        6
 72
     1
 10
704.9359135865431
 20
388.4527082603331
 11
787.4359040497997
 21
388.4527082603331
 72
     1
 10
787.4359040497997
 20
388.4527082603331
 11
787.4359040497997
 21
188.452720181262
 72
     1
 10
787.4359040497997
 20
188.452720181262
 11
887.4359278916577
 21
188.452720181262
 72
     1
 10
887.4359278916577
 20
188.452720181262
 11
887.4359278916577
 21
488.4526724975461
 72
     1
 10
887.4359278916577
 20
488.4526724975461
 11
704.9359135865431
 21
488.4526724975461
 72
     1
 10
704.9359135865431
 20
488.4526724975461
 11
704.9359135865431
 21
388.4527082603331
 97
        0
 75
     0
 76
     0
 52
45.0
 41
25.0
 77
     0
 78
     1
 53
45.0
 43
-59.16583143616342
 44
-244.1988367354988
 45
-17.67766952966367
 46
17.67766952966367
 79
     0
 98
        1
 10
-614.9236315001123
 20
-14.4235772999873
1001
GENIUS_GENODEF_13
1002
{
1000
HIER
1070
     0
1002
}
1002
{
1000
MANEDIT
1070
     0
1002
}
1002
{
1000
NOSEL
1070
     0
1002
}
1002
{
1000
BEHIND
1070
     0
1002
}
1002
{
1000
REACTOR
1002
}
1001
GENIUS_GENOBJ-N-HTC_13
1002
{
1000
OWNER
1000
GEN
1002
}
1001
GENIUS_GENHATCH_13
1002
{
1000
DATA
1040
45.0
1042
2.5
1000
_U
1070
     0
1011
756.9547342270125
1021
448.7634884041735
1031
0.0
1002
}
1002
{
1000
UCS
1010
0.0
1020
0.0
1030
0.0
1010
1.0
1020
0.0
1030
0.0
1010
0.0
1020
1.0
1030
0.0
1002
}
  0
HATCH
  5
15B4
330
1F
100
AcDbEntity
  8
AM_8
100
AcDbHatch
 10
0.0
 20
0.0
 30
0.0
210
0.0
220
0.0
230
1.0
  2
_U
 70
     0
 71
     0
 91
        1
 92
        1
 93
        6
 72
     1
 10
-1332.564076876713
 20
188.452720181262
 11
-1332.564076876713
 21
388.4527082603331
 72
     1
 10
-1332.564076876713
 20
388.4527082603331
 11
-1250.064086413456
 21
388.4527082603331
 72
     1
 10
-1250.064086413456
 20
388.4527082603331
 11
-1250.064086413456
 21
488.4526724975461
 72
     1
 10
-1250.064086413456
 20
488.4526724975461
 11
-1432.56410071857
 21
488.4526724975461
 72
     1
 10
-1432.56410071857
 20
488.4526724975461
 11
-1432.56410071857
 21
188.452720181262
 72
     1
 10
-1432.56410071857
 20
188.452720181262
 11
-1332.564076876713
 21
188.452720181262
 97
        0
 75
     0
 76
     0
 52
45.0
 41
25.0
 77
     0
 78
     1
 53
45.0
 43
-670.2490594708607
 44
-244.1988367354988
 45
-17.67766952966367
 46
17.67766952966367
 79
     0
 98
        1
 10
-114.9236315001123
 20
-14.4235772999873
1001
GENIUS_GENODEF_13
1002
{
1000
HIER
1070
     0
1002
}
1002
{
1000
MANEDIT
1070
     0
1002
}
1002
{
1000
NOSEL
1070
     0
1002
}
1002
{
1000
BEHIND
1070
     0
1002
}
1002
{
1000
REACTOR
1002
}
1001
GENIUS_GENOBJ-N-HTC_13
1002
{
1000
OWNER
1000
GEN
1002
}
1001
GENIUS_GENHATCH_13
1002
{
1000
DATA
1040
45.0
1042
2.5
1000
_U
1070
     0
1011
-1142.419860701759
1021
343.0568639711064
1031
0.0
1002
}
1002
{
1000
UCS
1010
0.0
1020
0.0
1030
0.0
1010
1.0
1020
0.0
1030
0.0
1010
0.0
1020
1.0
1030
0.0
1002
}
  0
DIMENSION
  5
16B3
330
1F
100
AcDbEntity
  8
AM_5
100
AcDbDimension
  2
*D14
 10
704.9359135865431
 20
588.4526724975472
 30
0.0
 11
-272.5640864134563
 21
616.1960752664676
 31
0.0
 70
    32
  1
DB min.
 71
     5
 42
1954.999999999999
  3
ISO-35
100
AcDbAlignedDimension
 13
-1250.064086413456
 23
488.4526724975461
 33
0.0
 14
704.9359135865431
 24
488.4526724975461
 34
0.0
 50
180.0
100
AcDbRotatedDimension
1001
ACAD
1000
DSTYLE
1002
{
1070
   271
1070
     0
1070
    40
1040
10.0
1002
}
1001
GENIUS_GENDTOL_13
1000

1000
h7
1000

1040
0.0
  0
DIMENSION
  5
173F
330
1F
100
AcDbEntity
  8
AM_5
100
AcDbDimension
  2
*D15
 10
727.4359135865431
 20
588.4526734975462
 30
0.0
 11
846.2301770844756
 21
618.581118379436
 31
0.0
 70
    32
  1
<>
 71
     5
 42
22.5
  3
ISO-35
100
AcDbAlignedDimension
 13
704.9359135865431
 23
488.4526724975461
 33
0.0
 14
727.4359135865431
 24
418.4527082603331
 34
0.0
 50
180.0
100
AcDbRotatedDimension
1001
ACAD
1000
DSTYLE
1002
{
1070
   271
1070
     1
1070
    40
1040
10.0
1002
}
1001
GENIUS_GENDTOL_13
1000

1000
h7
1000

1040
0.0
  0
DIMENSION
  5
17E3
330
1F
100
AcDbEntity
  8
AM_5
100
AcDbDimension
  2
*D16
 10
-1272.564086413455
 20
588.4526724975462
 30
0.0
 11
-1391.358349911389
 21
618.581117379436
 31
0.0
 70
    32
  1
<>
 71
     5
 42
22.5
  3
ISO-35
100
AcDbAlignedDimension
 13
-1250.064086413456
 23
488.4526724975461
 33
0.0
 14
-1272.564086413455
 24
418.4527082603331
 34
0.0
 50
180.0
100
AcDbRotatedDimension
1001
ACAD
1000
DSTYLE
1002
{
1070
   271
1070
     1
1070
    40
1040
10.0
1002
}
1001
GENIUS_GENDTOL_13
1000

1000
h7
1000

1040
0.0
  0
CIRCLE
  5
185D
330
1F
100
AcDbEntity
  8
AM_4
100
AcDbCircle
 10
727.4359135865434
 20
345.4527254264708
 30
0.0
 40
152.124826374327
1001
GENIUS_GENOREF_13
1005
1937
  0
INSERT
  5
192F
330
1F
100
AcDbEntity
  8
AM_0
370
     0
100
AcDbBlockReference
  2
GENZOOSWGF6Y1
 10
-1041.963479130439
 20
-986.1901944004968
 30
0.0
 41
2.0
 42
2.0
 43
2.0
  0
CIRCLE
  5
1930
330
1F
100
AcDbEntity
  8
AM_VIEWS
100
AcDbCircle
 10
-1041.963479130439
 20
-986.1901944004968
 30
0.0
 40
304.2496527486543
1001
GENIUS_GENODEF_13
1002
{
1000
HIER
1070
     0
1002
}
1002
{
1000
MANEDIT
1070
     0
1002
}
1002
{
1000
NOSEL
1070
     0
1002
}
1002
{
1000
BEHIND
1070
     0
1002
}
1002
{
1000
REACTOR
1002
}
1001
GENIUS_GENOBJ-N-SDF_13
1002
{
1000
OWNER
1000
GEN
1002
}
1001
GENIUS_GENOREF_13
1005
1937
1001
GENIUS_GENSCREG_15
1040
10.0
1040
0.5
1011
-1346.213131889096
1021
-1290.43984715915
1031
-0.00000001
1011
-737.7138263717868
1021
-681.9405416418417
1031
0.00000001
1070
     2
  0
POINT
  5
1937
330
1F
100
AcDbEntity
  8
0
 60
     1
100
AcDbPoint
 10
0.0
 20
0.0
 30
0.0
1001
GENIUS_GENOBJ-N-ZOO_13
1002
{
1000
OWNER
1000
GEN
1002
}
1001
GENIUS_GENZOO_15
1002
{
1000
TYP
1070
     1
1002
}
1002
{
1000
OBJ
1005
192F
1002
}
1002
{
1000
DBOR
1005
185D
1002
}
1002
{
1000
DTXT
1005
185E
1002
}
1002
{
1000
CBOR
1005
1930
1002
}
1002
{
1000
CTXT
1005
1934
1002
}
1002
{
1000
UCS
1010
0.0
1020
0.0
1030
0.0
1010
1.0
1020
0.0
1030
0.0
1010
0.0
1020
1.0
1030
0.0
1002
}
1002
{
1000
ENLARGEMENT
1040
2.0
1002
}
1001
GENIUS_GENOENT_13
1002
{
1000
MYREF
1005
1937
1002
}
1002
{
1000
GRP
1005
0
1002
}
1001
GENIUS_GENOLIS_13
1002
{
1000
ENT
1005
1934
1005
1930
1005
185E
1005
185D
1002
}
1001
GENIUS_GENODEF_13
1002
{
1000
HIER
1070
     1
1002
}
1002
{
1000
MANEDIT
1070
     1
1002
}
1002
{
1000
NOSEL
1070
     0
1002
}
1002
{
1000
BEHIND
1070
     0
1002
}
1002
{
1000
REACTOR
1002
}
  0
DIMENSION
  5
195B
330
1F
100
AcDbEntity
  8
AM_5
100
AcDbDimension
  2
*D18
 10
-1086.963479130439
 20
-632.9567614516291
 30
0.0
 11
-1205.757742628374
 21
-602.8283165697391
 31
0.0
 70
    32
  1
<>
 71
     5
 42
22.5
  3
ISO-35
100
AcDbAlignedDimension
 13
-1041.963479130439
 23
-840.190228732772
 33
0.0
 14
-1086.963479130439
 24
-700.1903002583458
 34
0.0
 50
180.0
100
AcDbRotatedDimension
1001
ACAD
1000
DSTYLE
1002
{
1070
   271
1070
     1
1070
    40
1040
10.0
1070
   144
1040
0.5
1002
}
1001
GENIUS_GENDTOL_13
1000

1000
h7
1000

1040
0.0
  0
DIMENSION
  5
19FF
330
1F
100
AcDbEntity
  8
AM_5
100
AcDbDimension
  2
*D19
 10
-1508.874131957567
 20
-538.1029321381221
 30
0.0
 11
-1297.918805544004
 21
-482.8595293692016
 31
0.0
 70
    32
  1
DB min.
 71
     5
 42
421.9106528271263
  3
ISO-35
100
AcDbAlignedDimension
 13
-1086.963479130439
 23
-700.1903002583458
 33
0.0
 14
-1508.874131957567
 24
-908.190244945235
 34
0.0
 50
180.0
100
AcDbRotatedDimension
1001
GENIUS_GENDTOL_13
1000

1000
h7
1000

1040
0.0
1001
ACAD
1000
DSTYLE
1002
{
1070
    76
1070
     1
1070
   282
1070
     1
1070
   271
1070
     1
1070
    40
1040
10.0
1002
}
  0
DIMENSION
  5
1A8A
330
1F
100
AcDbEntity
  8
AM_5
100
AcDbDimension
  2
*D20
 10
-921.9634982039286
 20
-538.102932138122
 30
0.0
 11
-1004.463488667185
 21
-507.9744872562322
 31
0.0
 70
    32
  1
<>
 71
     5
 42
82.4999904632566
  3
ISO-35
100
AcDbAlignedDimension
 13
-1086.963479130439
 23
-700.1903002583458
 33
0.0
 14
-921.9634982039286
 24
-900.1902287327721
 34
0.0
 50
180.0
100
AcDbRotatedDimension
1001
ACAD
1000
DSTYLE
1002
{
1070
   271
1070
     1
1070
    40
1040
10.0
1070
   144
1040
0.5
1002
}
1001
GENIUS_GENDTOL_13
1000

1000
h7
1000

1040
0.0
  0
DIMENSION
  5
1B29
102
{ACAD_XDICTIONARY
360
26B3
102
}
330
1F
100
AcDbEntity
  8
AM_5
100
AcDbDimension
  2
*D21
 10
-1333.805657546837
 20
-1331.743701496511
 30
0.0
 11
-1187.884568338639
 21
-1331.743701496511
 31
0.0
 70
   160
  1
DH
 71
     5
 42
291.8421784163961
  3
ISO-35
100
AcDbAlignedDimension
 13
-1041.963479130439
 23
-1132.190160068221
 33
0.0
 14
-1333.805657546837
 24
-1072.190160068221
 34
0.0
100
AcDbRotatedDimension
1001
GENIUS_GENDTOL_13
1000

1000
h7
1000

1040
0.0
1001
ACAD
1000
DSTYLE
1002
{
1070
    40
1040
10.0
1070
    76
1070
     1
1070
   271
1070
     1
1070
   282
1070
     1
1002
}
  0
DIMENSION
  5
1BB1
330
1F
100
AcDbEntity
  8
AM_5
100
AcDbDimension
  2
*D22
 10
-1508.874131957567
 20
-1413.950357067506
 30
0.0
 11
-1225.418805544004
 21
-1386.450357067506
 31
0.0
 70
    32
  1
BWKB
 71
     5
 42
566.9106528271256
  3
ISO-35
100
AcDbAlignedDimension
 13
-941.9634791304416
 23
-1057.190174373334
 33
0.0
 14
-1508.874131957567
 24
-908.190244945235
 34
0.0
100
AcDbRotatedDimension
1001
GENIUS_GENDTOL_13
1000

1000
h7
1000

1040
0.0
1001
ACAD
1000
DSTYLE
1002
{
1070
    40
1040
10.0
1070
    76
1070
     1
1070
   271
1070
     1
1070
   282
1070
     1
1002
}
  0
DIMENSION
  5
1C3C
330
1F
100
AcDbEntity
  8
AM_5
100
AcDbDimension
  2
*D23
 10
-1508.874131957567
 20
-1502.132485135116
 30
0.0
 11
-1215.418815080748
 21
-1474.570300799733
 31
0.0
 70
    32
  1
GBB min.
 71
     5
 42
586.9106337536385
  3
ISO-35
100
AcDbAlignedDimension
 13
-921.9634982039286
 23
-1265.775343818904
 33
0.0
 14
-1508.874131957567
 24
-908.190244945235
 34
0.0
100
AcDbRotatedDimension
1001
GENIUS_GENDTOL_13
1000

1000
h7
1000

1040
0.0
1001
ACAD
1000
DSTYLE
1002
{
1070
    40
1040
10.0
1070
    76
1070
     1
1070
   271
1070
     1
1070
   282
1070
     1
1002
}
  0
DIMENSION
  5
1CC7
330
1F
100
AcDbEntity
  8
AM_5
100
AcDbDimension
  2
*D24
 10
-921.9634982039282
 20
-1413.950357067505
 30
0.0
 11
-826.1997186763695
 21
-1386.450357067505
 31
0.0
 70
    32
  1
<>
 71
     5
 42
9.999990463256663
  3
ISO-35
100
AcDbAlignedDimension
 13
-941.9634791304416
 23
-1057.190174373334
 33
0.0
 14
-921.9634982039282
 24
-1265.775343818904
 34
0.0
100
AcDbRotatedDimension
1001
ACAD
1000
DSTYLE
1002
{
1070
   271
1070
     1
1070
    40
1040
10.0
1070
   144
1040
0.5
1002
}
1001
GENIUS_GENDTOL_13
1000

1000
h7
1000

1040
0.0
  0
DIMENSION
  5
1D6E
102
{ACAD_XDICTIONARY
360
2694
102
}
330
1F
100
AcDbEntity
  8
AM_5
100
AcDbDimension
  2
*D25
 10
-921.9634982039286
 20
-1331.743701496511
 30
0.0
 11
-981.9634886671851
 21
-1304.243701496511
 31
0.0
 70
    32
  1
<>
 71
     5
 42
59.99999046325661
  3
ISO-35
100
AcDbAlignedDimension
 13
-1041.963479130439
 23
-1132.190160068221
 33
0.0
 14
-921.9634982039286
 24
-1265.775343818904
 34
0.0
100
AcDbRotatedDimension
1001
ACAD
1000
DSTYLE
1002
{
1070
   271
1070
     1
1070
    40
1040
10.0
1070
   144
1040
0.5
1002
}
1001
GENIUS_GENDTOL_13
1000

1000
h7
1000

1040
0.0
  0
DIMENSION
  5
1DCC
330
1F
100
AcDbEntity
  8
AM_5
100
AcDbDimension
  2
*D26
 10
-941.9634791136619
 20
-1216.821265279945
 30
0.0
 11
-1019.96342857774
 21
-1189.321265279944
 31
0.0
 70
    32
  1
<>
 71
     5
 42
77.99994946407821
  3
ISO-35
100
AcDbAlignedDimension
 13
-1097.963378041818
 23
-1064.1902541626
 33
0.0
 14
-941.9634791136619
 24
-1064.190683130902
 34
0.0
100
AcDbRotatedDimension
1001
ACAD
1000
DSTYLE
1002
{
1070
   271
1070
     1
1070
    40
1040
10.0
1070
   144
1040
0.5
1002
}
1001
GENIUS_GENDTOL_13
1000

1000
h7
1000

1040
0.0
  0
DIMENSION
  5
1E65
330
1F
100
AcDbEntity
  8
AM_5
100
AcDbDimension
  2
*D27
 10
-662.3783287020342
 20
-900.1902287327721
 30
0.0
 11
-689.8783287020337
 21
-986.1901944004968
 31
0.0
 70
    32
  1
<>
 71
     5
 42
85.99996566772459
  3
ISO-35
100
AcDbAlignedDimension
 13
-949.963376133784
 23
-1072.190160068221
 33
0.0
 14
-949.9625772707398
 24
-900.1902287327721
 34
0.0
 50
90.0
100
AcDbRotatedDimension
1001
ACAD
1000
DSTYLE
1002
{
1070
   271
1070
     0
1070
    40
1040
10.0
1070
   144
1040
0.5
1002
}
1001
GENIUS_GENDTOL_13
1000

1000
h7
1000

1040
0.0
  0
CIRCLE
  5
206D
330
1F
100
AcDbEntity
  8
AM_VIEWS
100
AcDbCircle
 10
-99.34415934356753
 20
-986.1901944004968
 30
0.0
 40
304.2496527486543
1001
GENIUS_GENODEF_13
1002
{
1000
HIER
1070
     0
1002
}
1002
{
1000
MANEDIT
1070
     0
1002
}
1002
{
1000
NOSEL
1070
     0
1002
}
1002
{
1000
BEHIND
1070
     0
1002
}
1002
{
1000
REACTOR
1002
}
1001
GENIUS_GENOBJ-N-SDF_13
1002
{
1000
OWNER
1000
GEN
1002
}
1001
GENIUS_GENSCREG_15
1040
10.0
1040
0.5
1011
-403.5938121022219
1021
-1290.43984715915
1031
-0.00000001
1011
204.905493415087
1021
-681.9405416418417
1031
0.00000001
1070
     2
  0
DIMENSION
  5
2071
330
1F
100
AcDbEntity
  8
AM_5
100
AcDbDimension
  2
*D34
 10
280.2409910848399
 20
-900.1902287327721
 30
0.0
 11
252.7409910848403
 21
-986.1901944004968
 31
0.0
 70
    32
  1
<>
 71
     5
 42
85.99996566772459
  3
ISO-35
100
AcDbAlignedDimension
 13
-7.344056346909722
 23
-1072.190160068221
 33
0.0
 14
-7.343257483865499
 24
-900.1902287327721
 34
0.0
 50
90.0
100
AcDbRotatedDimension
1001
ACAD
1000
DSTYLE
1002
{
1070
   271
1070
     0
1070
    40
1040
10.0
1070
   144
1040
0.5
1002
}
1001
GENIUS_GENDTOL_13
1000

1000
h7
1000

1040
0.0
  0
DIMENSION
  5
2072
102
{ACAD_XDICTIONARY
360
26CC
102
}
330
1F
100
AcDbEntity
  8
AM_5
100
AcDbDimension
  2
*D32
 10
20.65582158294569
 20
-1331.743701496511
 30
0.0
 11
-39.34416888031092
 21
-1304.243701496511
 31
0.0
 70
    32
  1
<>
 71
     5
 42
59.99999046325661
  3
ISO-35
100
AcDbAlignedDimension
 13
-99.34415934356753
 23
-1132.190160068221
 33
0.0
 14
20.65582158294569
 24
-1265.775343818904
 34
0.0
100
AcDbRotatedDimension
1001
ACAD
1000
DSTYLE
1002
{
1070
   271
1070
     1
1070
    40
1040
10.0
1070
   144
1040
0.5
1002
}
1001
GENIUS_GENDTOL_13
1000

1000
h7
1000

1040
0.0
  0
DIMENSION
  5
2073
330
1F
100
AcDbEntity
  8
AM_5
100
AcDbDimension
  2
*D33
 10
0.6558406732121873
 20
-1216.821265279945
 30
0.0
 11
-77.34410879086602
 21
-1189.321265279944
 31
0.0
 70
    32
  1
<>
 71
     5
 42
77.99994946407821
  3
ISO-35
100
AcDbAlignedDimension
 13
-155.344058254944
 23
-1064.1902541626
 33
0.0
 14
0.6558406732121968
 24
-1064.190683130902
 34
0.0
100
AcDbRotatedDimension
1001
ACAD
1000
DSTYLE
1002
{
1070
   271
1070
     1
1070
    40
1040
10.0
1070
   144
1040
0.5
1002
}
1001
GENIUS_GENDTOL_13
1000

1000
h7
1000

1040
0.0
  0
DIMENSION
  5
2074
330
1F
100
AcDbEntity
  8
AM_5
100
AcDbDimension
  2
*D31
 10
20.65582158294577
 20
-1413.950357067505
 30
0.0
 11
116.4196011105048
 21
-1386.450357067505
 31
0.0
 70
    32
  1
<>
 71
     5
 42
9.999990463256663
  3
ISO-35
100
AcDbAlignedDimension
 13
0.6558406564324743
 23
-1057.190174373334
 33
0.0
 14
20.6558215829458
 24
-1265.775343818904
 34
0.0
100
AcDbRotatedDimension
1001
ACAD
1000
DSTYLE
1002
{
1070
   271
1070
     1
1070
    40
1040
10.0
1070
   144
1040
0.5
1002
}
1001
GENIUS_GENDTOL_13
1000

1000
h7
1000

1040
0.0
  0
DIMENSION
  5
2076
330
1F
100
AcDbEntity
  8
AM_5
100
AcDbDimension
  2
*D29
 10
-566.2548121706931
 20
-1413.950357067506
 30
0.0
 11
-282.7994857571303
 21
-1386.450357067506
 31
0.0
 70
    32
  1
BWKB
 71
     5
 42
566.9106528271256
  3
ISO-35
100
AcDbAlignedDimension
 13
0.6558406564324743
 23
-1057.190174373334
 33
0.0
 14
-566.2548121706931
 24
-908.190244945235
 34
0.0
100
AcDbRotatedDimension
1001
ACAD
1000
DSTYLE
1002
{
1070
    40
1040
10.0
1070
    76
1070
     1
1070
   271
1070
     1
1070
   282
1070
     1
1002
}
1001
GENIUS_GENDTOL_13
1000

1000
h7
1000

1040
0.0
  0
DIMENSION
  5
2077
330
1F
100
AcDbEntity
  8
AM_5
100
AcDbDimension
  2
*D30
 10
-566.2548121706931
 20
-1502.132485135116
 30
0.0
 11
-272.7994952938737
 21
-1474.570300799733
 31
0.0
 70
    32
  1
GBB min.
 71
     5
 42
586.9106337536387
  3
ISO-35
100
AcDbAlignedDimension
 13
20.65582158294569
 23
-1265.775343818904
 33
0.0
 14
-566.2548121706931
 24
-908.190244945235
 34
0.0
100
AcDbRotatedDimension
1001
ACAD
1000
DSTYLE
1002
{
1070
    40
1040
10.0
1070
    76
1070
     1
1070
   271
1070
     1
1070
   282
1070
     1
1002
}
1001
GENIUS_GENDTOL_13
1000

1000
h7
1000

1040
0.0
  0
DIMENSION
  5
2078
102
{ACAD_XDICTIONARY
360
26EB
102
}
330
1F
100
AcDbEntity
  8
AM_5
100
AcDbDimension
  2
*D28
 10
-391.1863377599626
 20
-1331.743701496511
 30
0.0
 11
-245.2652485517651
 21
-1331.743701496511
 31
0.0
 70
   160
  1
DB
 71
     5
 42
291.8421784163951
  3
ISO-35
100
AcDbAlignedDimension
 13
-99.34415934356753
 23
-1132.190160068221
 33
0.0
 14
-391.1863377599626
 24
-1072.190160068221
 34
0.0
100
AcDbRotatedDimension
1001
ACAD
1000
DSTYLE
1002
{
1070
    40
1040
10.0
1070
    76
1070
     1
1070
   271
1070
     1
1070
   282
1070
     1
1002
}
1001
GENIUS_GENDTOL_13
1000

1000
h7
1000

1040
0.0
  0
LINE
  5
21EF
330
1F
100
AcDbEntity
  8
Torblatt-AM_0
100
AcDbLine
 10
-401.7988695089357
 20
-953.1902020298907
 30
0.0
 11
-268.9793598440562
 21
-953.1902020298907
 31
0.0
  0
LINE
  5
21F0
330
1F
100
AcDbEntity
  8
Torblatt-AM_0
100
AcDbLine
 10
-400.9529361545767
 20
-946.1902325474687
 30
0.0
 11
-268.9793598440562
 21
-946.1902325474687
 31
0.0
  0
LINE
  5
21F1
330
1F
100
AcDbEntity
  8
Torblatt-AM_0
100
AcDbLine
 10
-391.1863377599626
 20
-1072.190160068221
 30
0.0
 11
-174.0496647146615
 21
-1072.190160068221
 31
0.0
  0
LINE
  5
21F2
330
1F
100
AcDbEntity
  8
Torblatt-AM_0
100
AcDbLine
 10
-174.0496647146615
 20
-908.190244945235
 30
0.0
 11
-393.4255410776946
 21
-908.190244945235
 31
0.0
  0
ARC
  5
21F3
330
1F
100
AcDbEntity
  8
Torblatt-AM_0
100
AcDbCircle
 10
-191.9791928973901
 20
-949.6902172886947
 30
0.0
 40
5.219274643127175
100
AcDbArc
 50
80.64380627089519
 51
279.3561937291047
  0
ARC
  5
21F4
330
1F
100
AcDbEntity
  8
Torblatt-AM_0
100
AcDbCircle
 10
-243.6144278480761
 20
-944.1903587215021
 30
0.0
 40
3.499884316869872
100
AcDbArc
 50
269.9990799217744
 51
348.2651342078451
  0
ARC
  5
21F5
330
1F
100
AcDbEntity
  8
Torblatt-AM_0
100
AcDbCircle
 10
-268.9792406315766
 20
-949.690217288596
 30
0.0
 40
1.999974254430534
100
AcDbArc
 50
90.00341522993677
 51
269.9965847700631
  0
ARC
  5
21F6
330
1F
100
AcDbEntity
  8
Torblatt-AM_0
100
AcDbCircle
 10
-268.9793598438486
 20
-949.6902172887043
 30
0.0
 40
3.49998474123538
100
AcDbArc
 50
90.00000000339369
 51
269.9999999966063
  0
LINE
  5
21F7
330
1F
100
AcDbEntity
  8
Zarge-AM_0
100
AcDbLine
 10
-155.3440582540899
 20
-908.190244945235
 30
0.0
 11
-155.3440582540899
 21
-970.860475810714
 31
0.0
  0
LINE
  5
21F8
330
1F
100
AcDbEntity
  8
Zarge-AM_0
100
AcDbLine
 10
-151.3441097525034
 20
-908.190244945235
 30
0.0
 11
-151.3441097525034
 21
-972.2258990132283
 31
0.0
  0
ARC
  5
21F9
330
1F
100
AcDbEntity
  8
Torblatt-AM_0
100
AcDbCircle
 10
-191.9792762038239
 20
-949.690157684021
 30
0.0
 40
6.71929331158569
100
AcDbArc
 50
80.64272556837236
 51
279.3572744316275
  0
LINE
  5
21FA
330
1F
100
AcDbEntity
  8
AM_0
100
AcDbLine
 10
20.65582158294569
 20
-700.1903002583458
 30
0.0
 11
20.65582158294569
 21
-1265.775343818904
 31
0.0
  0
LINE
  5
21FB
330
1F
100
AcDbEntity
  8
AM_7
  6
AM_DIN_G_W050x2
100
AcDbLine
 10
-99.34415934356753
 20
-840.190228732772
 30
0.0
 11
-99.34415934356753
 21
-1132.190160068221
 31
0.0
1001
GENIUS_GENODEF_13
1002
{
1000
HIER
1070
     0
1002
}
1002
{
1000
MANEDIT
1070
     0
1002
}
1002
{
1000
NOSEL
1070
     0
1002
}
1002
{
1000
BEHIND
1070
     0
1002
}
1002
{
1000
REACTOR
1002
}
1001
GENIUS_GENOBJ-N-CEN_13
1002
{
1000
OWNER
1000
GEN
1002
}
  0
LINE
  5
21FD
330
1F
100
AcDbEntity
  8
Zarge-AM_0
100
AcDbLine
 10
-147.3441612509164
 20
-1068.190211566633
 30
0.0
 11
-7.344056346741807
 21
-1068.190211566633
 31
0.0
  0
LINE
  5
21FE
330
1F
100
AcDbEntity
  8
Zarge-AM_0
100
AcDbLine
 10
-147.3441612509164
 20
-1072.190160068221
 30
0.0
 11
-7.344056346741807
 21
-1072.190160068221
 31
0.0
  0
LINE
  5
21FF
330
1F
100
AcDbEntity
  8
Abdeckleiste-AM_0
100
AcDbLine
 10
-217.3440944937144
 20
-1072.190160068221
 30
0.0
 11
-131.3441288259898
 21
-1072.190160068221
 31
0.0
  0
LINE
  5
2200
330
1F
100
AcDbEntity
  8
Abdeckleiste-AM_0
100
AcDbLine
 10
-217.3440944937144
 20
-1076.190227779098
 30
0.0
 11
-131.3441288259898
 21
-1076.190227779098
 31
0.0
  0
LINE
  5
2201
330
1F
100
AcDbEntity
  8
Zarge-AM_0
100
AcDbLine
 10
-155.3440582540899
 20
-1001.519912990278
 30
0.0
 11
-155.3440582540899
 21
-1064.190143855757
 31
0.0
  0
LINE
  5
2202
330
1F
100
AcDbEntity
  8
Zarge-AM_0
100
AcDbLine
 10
-151.3441097525034
 20
-1000.154489787764
 30
0.0
 11
-151.3441097525034
 21
-1064.190143855757
 31
0.0
  0
LINE
  5
2203
330
1F
100
AcDbEntity
  8
Torblatt-AM_0
100
AcDbLine
 10
-170.4793464926158
 20
-958.6901610218957
 30
0.0
 11
-170.4793464926158
 21
-1068.619722636885
 31
0.0
  0
LINE
  5
2204
330
1F
100
AcDbEntity
  8
Torblatt-AM_0
100
AcDbLine
 10
-171.9792377737437
 20
-958.9830582463219
 30
0.0
 11
-171.9792377737437
 21
-1068.619722636885
 31
0.0
  0
LINE
  5
2205
330
1F
100
AcDbEntity
  8
Torblatt-AM_0
100
AcDbLine
 10
-241.6480076101691
 20
-954.8257534825276
 30
0.0
 11
-220.4211246755992
 21
-1069.355005534836
 31
0.0
  0
LINE
  5
2206
330
1F
100
AcDbEntity
  8
Torblatt-AM_0
100
AcDbLine
 10
-240.1731502798476
 20
-954.5524065815881
 30
0.0
 11
-218.9462673452769
 21
-1069.081658633894
 31
0.0
  0
LINE
  5
2207
330
1F
100
AcDbEntity
  8
Torblatt-AM_0
100
AcDbLine
 10
-174.0496647146615
 20
-1070.690149577804
 30
0.0
 11
-217.0122158316044
 21
-1070.690149577804
 31
0.0
  0
ARC
  5
2208
330
1F
100
AcDbEntity
  8
Torblatt-AM_0
100
AcDbCircle
 10
-217.0124796814209
 20
-1068.723468385222
 30
0.0
 40
1.966681210345316
100
AcDbArc
 50
190.4938094427354
 51
270.007686797882
  0
LINE
  5
2209
330
1F
100
AcDbEntity
  8
Abdeckleiste-AM_0
100
AcDbLine
 10
-217.3440944937144
 20
-1076.190227779098
 30
0.0
 11
-217.3440944937144
 21
-1072.190160068221
 31
0.0
  0
ARC
  5
220A
330
1F
100
AcDbEntity
  8
Torblatt-AM_0
100
AcDbCircle
 10
-217.0124098332978
 20
-1068.723428743105
 30
0.0
 40
3.466731330803747
100
AcDbArc
 50
190.4968935154441
 51
270.0032063281509
  0
ARC
  5
220B
330
1F
100
AcDbEntity
  8
Zarge-AM_0
100
AcDbCircle
 10
-147.3440550444581
 20
-1064.190156860036
 30
0.0
 40
4.00005470806672
100
AcDbArc
 50
180.0
 51
269.9984787253483
  0
ARC
  5
220C
330
1F
100
AcDbEntity
  8
Torblatt-AM_0
100
AcDbCircle
 10
-174.0498806855846
 20
-1068.619506665003
 30
0.0
 40
2.070642924063655
100
AcDbArc
 50
270.0059760291243
 51
0.0
  0
ARC
  5
220D
330
1F
100
AcDbEntity
  8
Zarge-AM_0
100
AcDbCircle
 10
-147.3441523493185
 20
-1064.1902541626
 30
0.0
 40
7.999905905625559
100
AcDbArc
 50
180.0
 51
269.999936246248
  0
ARC
  5
220E
330
1F
100
AcDbEntity
  8
Torblatt-AM_0
100
AcDbCircle
 10
-174.0496028936309
 20
-1068.61990366306
 30
0.0
 40
3.570256405696221
100
AcDbArc
 50
269.9990078908243
 51
0.0
  0
LINE
  5
220F
330
1F
100
AcDbEntity
  8
Torblatt-AM_0
100
AcDbLine
 10
-239.8288738516241
 20
-956.4094488942096
 30
0.0
 11
-191.9792187002578
 21
-956.4094488942096
 31
0.0
  0
LINE
  5
2210
330
1F
100
AcDbEntity
  8
Torblatt-AM_0
100
AcDbLine
 10
-171.9792377737437
 20
-958.9830582463219
 30
0.0
 11
-239.3517982748428
 21
-958.9830582463219
 31
0.0
  0
ARC
  5
2211
330
1F
100
AcDbEntity
  8
Torblatt-AM_0
100
AcDbCircle
 10
-243.6144780825407
 20
-955.1901053646783
 30
0.0
 40
3.499913825209516
100
AcDbArc
 50
10.49817103726933
 51
90.00009770084906
  0
ARC
  5
2212
330
1F
100
AcDbEntity
  8
Torblatt-AM_0
100
AcDbCircle
 10
-243.6144082063861
 20
-955.1900656968724
 30
0.0
 40
1.999863668934897
100
AcDbArc
 50
10.49609579025635
 51
90.00217292476101
  0
LINE
  5
2213
330
1F
100
AcDbEntity
  8
Torblatt-AM_0
100
AcDbLine
 10
-243.6144840505992
 20
-951.6901915394738
 30
0.0
 11
-268.9793598440562
 21
-951.6901915394738
 31
0.0
  0
LINE
  5
2214
330
1F
100
AcDbEntity
  8
Torblatt-AM_0
100
AcDbLine
 10
-243.6144840505992
 20
-953.1902020298907
 30
0.0
 11
-268.9793598440562
 21
-953.1902020298907
 31
0.0
  0
ARC
  5
2215
330
1F
100
AcDbEntity
  8
Torblatt-AM_0
100
AcDbCircle
 10
-174.4912447438105
 20
-954.1020368826677
 30
0.0
 40
0.4912905280391751
100
AcDbArc
 50
22.1077024600243
 51
113.2336988161263
  0
ARC
  5
2216
330
1F
100
AcDbEntity
  8
Torblatt-AM_0
100
AcDbCircle
 10
-174.4912318301073
 20
-954.1018766209301
 30
0.0
 40
1.99112626635083
100
AcDbArc
 50
22.09515197550378
 51
106.235510851798
  0
LINE
  5
2217
330
1F
100
AcDbEntity
  8
Torblatt-AM_0
100
AcDbLine
 10
-191.1306869772344
 20
-954.8400585972736
 30
0.0
 11
-175.0479233053604
 21
-952.1901552998507
 31
0.0
  0
ARC
  5
2218
330
1F
100
AcDbEntity
  8
Zarge-AM_0
100
AcDbCircle
 10
-134.3434096687438
 20
-986.1901944005076
 30
0.0
 40
22.00057610611917
100
AcDbArc
 50
140.6004771388878
 51
219.3995228611162
  0
ARC
  5
2219
330
1F
100
AcDbEntity
  8
Zarge-AM_0
100
AcDbCircle
 10
-134.3446261308687
 20
-986.1901944005127
 30
0.0
 40
25.99954656412655
100
AcDbArc
 50
143.8703188787739
 51
216.129681121226
  0
LINE
  5
221A
330
1F
100
AcDbEntity
  8
Torblatt-AM_0
100
AcDbLine
 10
-190.886784770814
 20
-956.3200419270463
 30
0.0
 11
-174.6850502279674
 21
-953.6505883061364
 31
0.0
  0
LINE
  5
221B
330
1F
100
AcDbEntity
  8
Torblatt-AM_0
100
AcDbLine
 10
-174.0360748556524
 20
-953.9171402775714
 30
0.0
 11
-171.9792377737437
 21
-958.9830582463219
 31
0.0
  0
LINE
  5
221C
330
1F
100
AcDbEntity
  8
Torblatt-AM_0
100
AcDbLine
 10
-172.6463329580699
 20
-953.3529227101276
 30
0.0
 11
-170.4793464926158
 21
-958.6901610218957
 31
0.0
  0
LINE
  5
221D
330
1F
100
AcDbEntity
  8
Abdeckleiste-AM_0
100
AcDbLine
 10
-131.3441288259898
 20
-1076.190227779098
 30
0.0
 11
-131.3441288259898
 21
-1072.190160068221
 31
0.0
  0
ARC
  5
221E
330
1F
100
AcDbEntity
  8
Zarge-AM_0
100
AcDbCircle
 10
-7.344162551496763
 20
-1050.190191884918
 30
0.0
 40
4.000054706363127
100
AcDbArc
 50
0.0
 51
89.99847874974902
  0
ARC
  5
221F
330
1F
100
AcDbEntity
  8
Zarge-AM_0
100
AcDbCircle
 10
-7.344162552170701
 20
-1064.190156860882
 30
0.0
 40
4.000054707161311
100
AcDbArc
 50
270.0015212598979
 51
0.0
  0
LINE
  5
2220
330
1F
100
AcDbEntity
  8
Zarge-AM_0
100
AcDbLine
 10
0.6558406564324743
 20
-1064.190143855757
 30
0.0
 11
0.6558406564324743
 21
-1050.190204890913
 31
0.0
  0
LINE
  5
2221
330
1F
100
AcDbEntity
  8
Zarge-AM_0
100
AcDbLine
 10
-3.344107845154892
 20
-1064.190143855757
 30
0.0
 11
-3.344107845154892
 21
-1050.190204890913
 31
0.0
  0
ARC
  5
2222
330
1F
100
AcDbEntity
  8
Zarge-AM_0
100
AcDbCircle
 10
-7.343658270989863
 20
-1064.190661133893
 30
0.0
 40
7.999498944232312
100
AcDbArc
 50
269.9971488138593
 51
0.0
  0
ARC
  5
2223
330
1F
100
AcDbEntity
  8
Zarge-AM_0
100
AcDbCircle
 10
-7.343861749901178
 20
-1050.189891088592
 30
0.0
 40
7.999702412508201
100
AcDbArc
 50
0.0
 51
90.00139374905259
  0
LINE
  5
2224
330
1F
100
AcDbEntity
  8
Zarge-AM_0
100
AcDbLine
 10
-19.33984873565782
 20
-1046.190137180037
 30
0.0
 11
-19.33984873565782
 21
-1042.190188678451
 31
0.0
  0
LINE
  5
2225
330
1F
100
AcDbEntity
  8
Zarge-AM_0
100
AcDbLine
 10
-7.344056346741807
 20
-1046.190137180037
 30
0.0
 11
-19.33984873565782
 21
-1046.190137180037
 31
0.0
  0
LINE
  5
2226
330
1F
100
AcDbEntity
  8
Zarge-AM_0
100
AcDbLine
 10
-7.344056346741807
 20
-1042.190188678451
 30
0.0
 11
-19.33984873565782
 21
-1042.190188678451
 31
0.0
  0
LINE
  5
2227
330
1F
100
AcDbEntity
  8
Zarge-AM_0
100
AcDbLine
 10
-7.344056346741807
 20
-900.1902287327721
 30
0.0
 11
-147.3441612509164
 21
-900.1902287327721
 31
0.0
  0
LINE
  5
2228
330
1F
100
AcDbEntity
  8
Zarge-AM_0
100
AcDbLine
 10
-7.344056346741807
 20
-904.1901772343583
 30
0.0
 11
-147.3441612509164
 21
-904.1901772343583
 31
0.0
  0
LINE
  5
222B
330
1F
100
AcDbEntity
  8
Torblatt-AM_0
100
AcDbLine
 10
-191.9792187002578
 20
-942.970866473861
 30
0.0
 11
-239.6498214987198
 21
-942.970866473861
 31
0.0
  0
LINE
  5
222C
330
1F
100
AcDbEntity
  8
Torblatt-AM_0
100
AcDbLine
 10
-174.0496647146615
 20
-909.6901362263627
 30
0.0
 11
-228.6882889059458
 21
-909.6901362263627
 31
0.0
  0
LINE
  5
222D
330
1F
100
AcDbEntity
  8
Torblatt-AM_0
100
AcDbLine
 10
-171.9792377737437
 20
-940.3972571217488
 30
0.0
 11
-238.9328968313609
 21
-940.3972571217488
 31
0.0
  0
ARC
  5
222E
330
1F
100
AcDbEntity
  8
Torblatt-AM_0
100
AcDbCircle
 10
-228.688257080689
 20
-911.981260229265
 30
0.0
 40
2.291124003123087
100
AcDbArc
 50
90.00079587700362
 51
175.9890392631401
  0
ARC
  5
222F
330
1F
100
AcDbEntity
  8
Torblatt-AM_0
100
AcDbCircle
 10
-228.6884025826285
 20
-911.9812164197183
 30
0.0
 40
3.790971476187421
100
AcDbArc
 50
89.99828191950808
 51
173.4129490918878
  0
ARC
  5
2230
330
1F
100
AcDbEntity
  8
Torblatt-AM_0
100
AcDbCircle
 10
-243.6146617511909
 20
-944.1900640347707
 30
0.0
 40
2.000168520621909
100
AcDbArc
 50
270.0050903180588
 51
349.4966409502192
  0
LINE
  5
2231
330
1F
100
AcDbEntity
  8
Torblatt-AM_0
100
AcDbLine
 10
-230.9737694052139
 20
-911.8210022770833
 30
0.0
 11
-240.1876938131719
 21
-944.9021761738727
 31
0.0
  0
LINE
  5
2232
330
1F
100
AcDbEntity
  8
Torblatt-AM_0
100
AcDbLine
 10
-232.4543487814346
 20
-911.5463440739596
 30
0.0
 11
-241.6480076101691
 21
-944.5546810948323
 31
0.0
  0
LINE
  5
2233
330
1F
100
AcDbEntity
  8
Torblatt-AM_0
100
AcDbLine
 10
-243.6144840505992
 20
-946.1902325474687
 30
0.0
 11
-268.9793598440562
 21
-946.1902325474687
 31
0.0
  0
LINE
  5
2234
330
1F
100
AcDbEntity
  8
Torblatt-AM_0
100
AcDbLine
 10
-243.6144840505992
 20
-947.6902430378864
 30
0.0
 11
-268.9793598440562
 21
-947.6902430378864
 31
0.0
  0
ARC
  5
2235
330
1F
100
AcDbEntity
  8
Zarge-AM_0
100
AcDbCircle
 10
-147.3440550462756
 20
-908.1902319388166
 30
0.0
 40
4.000054706248873
100
AcDbArc
 50
90.00152124861605
 51
180.0
  0
ARC
  5
2236
330
1F
100
AcDbEntity
  8
Torblatt-AM_0
100
AcDbCircle
 10
-174.0498806776311
 20
-911.760779121746
 30
0.0
 40
2.070642906645431
100
AcDbArc
 50
0.0
 51
89.99402419090447
  0
LINE
  5
2237
330
1F
100
AcDbEntity
  8
Torblatt-AM_0
100
AcDbLine
 10
-171.9792377737437
 20
-940.3972571217488
 30
0.0
 11
-171.9792377737437
 21
-911.760682376571
 31
0.0
  0
LINE
  5
2238
330
1F
100
AcDbEntity
  8
Torblatt-AM_0
100
AcDbLine
 10
-172.6463329580699
 20
-946.0275118672321
 30
0.0
 11
-170.4793464926158
 21
-940.6901543461756
 31
0.0
  0
LINE
  5
2239
330
1F
100
AcDbEntity
  8
Torblatt-AM_0
100
AcDbLine
 10
-170.4793464926158
 20
-940.6901543461756
 30
0.0
 11
-170.4793464926158
 21
-911.760682376571
 31
0.0
  0
LINE
  5
223A
330
1F
100
AcDbEntity
  8
Torblatt-AM_0
100
AcDbLine
 10
-174.0360748556524
 20
-945.4632942997887
 30
0.0
 11
-171.9792377737437
 21
-940.3972571217488
 31
0.0
  0
ARC
  5
223B
330
1F
100
AcDbEntity
  8
Torblatt-AM_0
100
AcDbCircle
 10
-174.4911044798016
 20
-945.2785373857667
 30
0.0
 40
0.4911080096194734
100
AcDbArc
 50
246.7393488369902
 51
337.9012380634546
  0
ARC
  5
223C
330
1F
100
AcDbEntity
  8
Torblatt-AM_0
100
AcDbCircle
 10
-174.4910581902819
 20
-945.2787206230922
 30
0.0
 40
1.990904193993238
100
AcDbArc
 50
253.7574232752624
 51
337.9073059215055
  0
ARC
  5
223D
330
1F
100
AcDbEntity
  8
Torblatt-AM_0
100
AcDbCircle
 10
-174.0496028939808
 20
-911.7605013509999
 30
0.0
 40
3.570256406300461
100
AcDbArc
 50
0.0
 51
90.00099210356081
  0
ARC
  5
223E
330
1F
100
AcDbEntity
  8
Zarge-AM_0
100
AcDbCircle
 10
-147.3441523493863
 20
-908.1901346381057
 30
0.0
 40
7.999905905464212
100
AcDbArc
 50
90.0000637532633
 51
180.0
  0
LINE
  5
223F
330
1F
100
AcDbEntity
  8
Torblatt-AM_0
100
AcDbLine
 10
-190.886784770814
 20
-943.0602734410241
 30
0.0
 11
-174.6850502279674
 21
-945.7297270619347
 31
0.0
  0
LINE
  5
2240
330
1F
100
AcDbEntity
  8
Torblatt-AM_0
100
AcDbLine
 10
-191.1306869772344
 20
-944.5403759800861
 30
0.0
 11
-175.0479233053604
 21
-947.1901600682208
 31
0.0
  0
LINE
  5
2241
330
1F
100
AcDbEntity
  8
Zarge-AM_0
100
AcDbLine
 10
0.6558406564324743
 20
-922.1901839100787
 30
0.0
 11
0.6558406564324743
 21
-908.190244945235
 31
0.0
  0
ARC
  5
2242
330
1F
100
AcDbEntity
  8
Zarge-AM_0
100
AcDbCircle
 10
-7.344162552107945
 20
-908.1902319397267
 30
0.0
 40
4.000054706974193
100
AcDbArc
 50
0.0
 51
89.99847874099449
  0
LINE
  5
2243
330
1F
100
AcDbEntity
  8
Zarge-AM_0
100
AcDbLine
 10
-3.344107845154892
 20
-922.1901839100787
 30
0.0
 11
-3.344107845154892
 21
-908.190244945235
 31
0.0
  0
ARC
  5
2244
330
1F
100
AcDbEntity
  8
Zarge-AM_0
100
AcDbCircle
 10
-7.344162550664122
 20
-922.1901969169483
 30
0.0
 40
4.000054705530375
100
AcDbArc
 50
270.0015212383243
 51
0.0
  0
ARC
  5
2245
330
1F
100
AcDbEntity
  8
Zarge-AM_0
100
AcDbCircle
 10
-7.343861749382312
 20
-922.1904977129732
 30
0.0
 40
7.999702411969757
100
AcDbArc
 50
269.998606247228
 51
0.0
  0
ARC
  5
2246
330
1F
100
AcDbEntity
  8
Zarge-AM_0
100
AcDbCircle
 10
-7.343658270044442
 20
-908.1897276659336
 30
0.0
 40
7.999498943201695
100
AcDbArc
 50
0.0
 51
90.00285119291479
  0
LINE
  5
2247
330
1F
100
AcDbEntity
  8
Zarge-AM_0
100
AcDbLine
 10
-19.33984873565782
 20
-930.1902001225426
 30
0.0
 11
-19.33984873565782
 21
-926.1902516209552
 31
0.0
  0
LINE
  5
2248
330
1F
100
AcDbEntity
  8
Zarge-AM_0
100
AcDbLine
 10
-19.33984873565782
 20
-926.1902516209552
 30
0.0
 11
-7.344056346741807
 21
-926.1902516209552
 31
0.0
  0
LINE
  5
2249
330
1F
100
AcDbEntity
  8
Zarge-AM_0
100
AcDbLine
 10
-19.33984873565782
 20
-930.1902001225426
 30
0.0
 11
-7.344056346741807
 21
-930.1902001225426
 31
0.0
  0
LINE
  5
224A
330
1F
100
AcDbEntity
  8
0
  6
Continuous
 62
     7
100
AcDbLine
 10
-98.49553225311344
 20
-700.1903002583458
 30
0.0
 11
-99.34406397613589
 21
-701.0388319813691
 31
0.0
  0
HATCH
  5
227B
330
1F
100
AcDbEntity
  8
AM_8
100
AcDbHatch
 10
0.0
 20
0.0
 30
0.0
210
0.0
220
0.0
230
1.0
  2
_U
 70
     0
 71
     0
 91
        1
 92
        1
 93
        4
 72
     1
 10
221.1448903947855
 20
-1265.775343818904
 11
221.1448903947855
 21
-700.1903002583458
 72
     1
 10
221.1448903947855
 20
-700.1903002583458
 11
20.65582158294569
 21
-700.1903002583458
 72
     1
 10
20.65582158294569
 20
-700.1903002583458
 11
20.65582158294569
 21
-1265.775343818904
 72
     1
 10
20.65582158294569
 20
-1265.775343818904
 11
221.1448903947855
 21
-1265.775343818904
 97
        0
 75
     0
 76
     0
 52
45.0
 41
50.0
 77
     0
 78
     1
 53
45.0
 43
555.7578000639491
 44
-489.4043985210355
 45
-35.35533905932737
 46
35.35533905932737
 79
     0
 98
        1
 10
0.0
 20
-259.629139085524
1001
GENIUS_GENODEF_13
1002
{
1000
HIER
1070
     0
1002
}
1002
{
1000
MANEDIT
1070
     0
1002
}
1002
{
1000
NOSEL
1070
     0
1002
}
1002
{
1000
BEHIND
1070
     0
1002
}
1002
{
1000
REACTOR
1002
}
1001
GENIUS_GENOBJ-N-HTC_13
1002
{
1000
OWNER
1000
GEN
1002
}
1001
GENIUS_GENHATCH_13
1002
{
1000
DATA
1040
45.0
1042
5.0
1000
_U
1070
     0
1011
86.60117279605767
1021
-851.1005530556422
1031
0.0
1002
}
1002
{
1000
UCS
1010
0.0
1020
0.0
1030
0.0
1010
1.0
1020
0.0
1030
0.0
1010
0.0
1020
1.0
1030
0.0
1002
}
  0
MTEXT
  5
227D
330
1F
100
AcDbEntity
  8
AM_6
100
AcDbMText
 10
-464.6890688005278
 20
-332.6315399672257
 30
0.0
 40
50.0
 41
912.0499999999999
 71
     1
 72
     5
  1
Inbouw in de opening
 73
     1
 44
1.0
  0
MTEXT
  5
227F
330
1F
100
AcDbEntity
  8
AM_6
100
AcDbMText
 10
-1427.689366408236
 20
-332.6315399672257
 30
0.0
 40
50.0
 41
912.0499999999999
 71
     1
 72
     5
  1
Inbouw achter de opening
 73
     1
 44
1.0
  0
DIMENSION
  5
239D
330
1F
100
AcDbEntity
  8
AM_5
100
AcDbDimension
  2
*D35
 10
1427.296527668467
 20
541.1750174535987
 30
0.0
 11
1399.796527668467
 21
641.2931276898196
 31
0.0
 70
    32
  1
<>
 71
     5
 42
86.0
  3
ISO-35
100
AcDbAlignedDimension
 13
1533.796528678467
 23
455.1750174535988
 33
0.0
 14
1533.796528678468
 24
541.1750174535987
 34
0.0
 50
269.9999999999996
100
AcDbRotatedDimension
1001
ACAD
1000
DSTYLE
1002
{
1070
   271
1070
     0
1070
    40
1040
10.0
1002
}
1001
GENIUS_GENDTOL_13
1000

1000
h7
1000

1040
0.0
  0
DIMENSION
  5
2441
330
1F
100
AcDbEntity
  8
AM_5
100
AcDbDimension
  2
*D36
 10
1607.796528678467
 20
637.1750174535989
 30
0.0
 11
1707.046528678468
 21
664.6750174535989
 31
0.0
 70
    32
  1
<>
 71
     5
 42
78.00000000000022
  3
ISO-35
100
AcDbAlignedDimension
 13
1529.796528678467
 23
537.1750174535987
 33
0.0
 14
1607.796528678467
 24
537.1750174535987
 34
0.0
 50
180.0
100
AcDbRotatedDimension
1001
ACAD
1000
DSTYLE
1002
{
1070
   271
1070
     0
1070
    40
1040
10.0
1002
}
1001
GENIUS_GENDTOL_13
1000

1000
h7
1000

1040
0.0
  0
MTEXT
  5
24D3
330
1F
100
AcDbEntity
  8
AM_6
100
AcDbMText
 10
1209.084502688374
 20
262.9853486319805
 30
0.0
 40
35.0
 41
200.0
 71
     2
 72
     5
  1
DB\P2000\P2250\P2500\P2750\P3000\P3250\P3500\P3750\P4000\P4250\P4500\P4750\P5000
 73
     1
 44
1.0
  0
MTEXT
  5
24DE
330
1F
100
AcDbEntity
  8
AM_6
100
AcDbMText
 10
1372.40469138188
 20
262.9853486319805
 30
0.0
 40
35.0
 41
200.0
 71
     2
 72
     5
  1
BWKB\P2100\P2350\P2600\P2850\P3100\P3350\P3600\P3850\P4100\P4350\P4600\P4850\P5100
 73
     1
 44
1.0
  0
MTEXT
  5
24E3
330
1F
100
AcDbEntity
  8
AM_6
100
AcDbMText
 10
1564.287302401148
 20
262.9853486319805
 30
0.0
 40
35.0
 41
200.0
 71
     2
 72
     5
  1
DB min.\P1955\P2205\P2455\P2705\P2955\P3205\P3455\P3705\P3955\P4205\P4455\P4705\P4955
 73
     1
 44
1.0
  0
MTEXT
  5
24E8
330
1F
100
AcDbEntity
  8
AM_6
100
AcDbMText
 10
1748.664315172116
 20
262.9853486319805
 30
0.0
 40
35.0
 41
200.0
 71
     2
 72
     5
  1
DRH\P1780\P2030\P2280\P2530\P2780\P3030\P3280\P3530\P3780\P4030\P4280\P4530\P4780
 73
     1
 44
1.0
  0
MTEXT
  5
24ED
330
1F
100
AcDbEntity
  8
AM_6
100
AcDbMText
 10
1936.206233749219
 20
262.9853486319805
 30
0.0
 40
35.0
 41
200.0
 71
     2
 72
     5
  1
GBB min.\P2120\P2370\P2620\P2870\P3120\P3370\P3620\P3870\P4120\P4370\P4620\P4870\P5120
 73
     1
 44
1.0
  0
LWPOLYLINE
  5
2584
330
1F
100
AcDbEntity
  8
AM_4
100
AcDbPolyline
 90
        4
 70
     1
 43
0.0
 10
1136.313091401448
 20
-543.7795526309145
 10
2028.646092695467
 20
-543.7795526309145
 10
2028.646092695467
 20
274.5475359037599
 10
1136.313091401448
 20
274.5475359037599
1001
GENIUS_GENREC_14
1002
{
1000
PYDIR
1011
1136.313091401448
1021
274.5475359037599
1031
0.0
1002
}
1002
{
1000
PXDIR
1011
2028.646092695467
1021
-543.7795526309145
1031
0.0
1002
}
1002
{
1000
PORI
1011
1136.313091401448
1021
-543.7795526309145
1031
0.0
1002
}
1002
{
1000
PINS
1011
1136.313091401448
1021
-543.7795526309145
1031
0.0
1002
}
1002
{
1000
PINS2
1011
2028.646092695467
1021
274.5475359037599
1031
0.0
1002
}
1002
{
1000
C
1070
     1
1002
}
1001
GENIUS_GENODEF_13
1002
{
1000
HIER
1070
     0
1002
}
1002
{
1000
MANEDIT
1070
     0
1002
}
1002
{
1000
NOSEL
1070
     0
1002
}
1002
{
1000
BEHIND
1070
     0
1002
}
1002
{
1000
REACTOR
1002
}
1001
GENIUS_GENOBJ-N-REC_13
1002
{
1000
OWNER
1000
GEN
1002
}
  0
LINE
  5
2587
330
1F
100
AcDbEntity
  8
AM_4
100
AcDbLine
 10
1136.313091401448
 20
215.9648357086906
 30
0.0
 11
2028.646092695467
 21
215.9648357086906
 31
0.0
  0
LINE
  5
2588
330
1F
100
AcDbEntity
  8
AM_4
100
AcDbLine
 10
2028.646092695467
 20
157.3821355136204
 30
0.0
 11
1136.313091401448
 21
157.3821355136204
 31
0.0
  0
LINE
  5
2589
330
1F
100
AcDbEntity
  8
AM_4
100
AcDbLine
 10
1136.313091401448
 20
100.6301433513899
 30
0.0
 11
2028.646092695467
 21
100.6301433513899
 31
0.0
  0
LINE
  5
258A
330
1F
100
AcDbEntity
  8
AM_4
100
AcDbLine
 10
2028.646092695467
 20
42.04744315632068
 30
0.0
 11
1136.313091401448
 21
42.04744315632068
 31
0.0
  0
LINE
  5
258B
330
1F
100
AcDbEntity
  8
AM_4
100
AcDbLine
 10
1136.313091401448
 20
-16.53525703874857
 30
0.0
 11
2028.646092695467
 21
-16.53525703874857
 31
0.0
  0
LINE
  5
258C
330
1F
100
AcDbEntity
  8
AM_4
100
AcDbLine
 10
2028.646092695467
 20
-75.11795723381872
 30
0.0
 11
1136.313091401448
 21
-75.11795723381872
 31
0.0
  0
LINE
  5
258D
330
1F
100
AcDbEntity
  8
AM_4
100
AcDbLine
 10
1136.313091401448
 20
-133.700657428888
 30
0.0
 11
2028.646092695467
 21
-133.700657428888
 31
0.0
  0
LINE
  5
258E
330
1F
100
AcDbEntity
  8
AM_4
100
AcDbLine
 10
2028.646092695467
 20
-190.4526434276585
 30
0.0
 11
1136.313091401448
 21
-190.4526434276585
 31
0.0
  0
LINE
  5
258F
330
1F
100
AcDbEntity
  8
AM_4
100
AcDbLine
 10
1136.313091401448
 20
-250.8660516555663
 30
0.0
 11
2028.646092695467
 21
-250.8660516555663
 31
0.0
  0
LINE
  5
2590
330
1F
100
AcDbEntity
  8
AM_4
100
AcDbLine
 10
1136.313091401448
 20
-309.4487518506366
 30
0.0
 11
2028.646092695467
 21
-309.4487518506366
 31
0.0
  0
LINE
  5
2591
330
1F
100
AcDbEntity
  8
AM_4
100
AcDbLine
 10
2028.646092695467
 20
-366.2007440128673
 30
0.0
 11
1136.313091401448
 21
-366.2007440128673
 31
0.0
  0
LINE
  5
2592
330
1F
100
AcDbEntity
  8
AM_4
100
AcDbLine
 10
1136.313091401448
 20
-422.9527361750978
 30
0.0
 11
2028.646092695467
 21
-422.9527361750978
 31
0.0
  0
LINE
  5
2593
330
1F
100
AcDbEntity
  8
AM_4
100
AcDbLine
 10
2028.646092695467
 20
-483.3661444030058
 30
0.0
 11
1136.313091401448
 21
-483.3661444030059
 31
0.0
  0
LINE
  5
2594
330
1F
100
AcDbEntity
  8
AM_4
100
AcDbLine
 10
1282.89756121955
 20
-543.7795526309145
 30
0.0
 11
1282.89756121955
 21
274.5475359037599
 31
0.0
  0
LINE
  5
2595
330
1F
100
AcDbEntity
  8
AM_4
100
AcDbLine
 10
1462.463551115956
 20
274.5475359037599
 30
0.0
 11
1462.463551115956
 21
-543.7795526309145
 31
0.0
  0
LINE
  5
2596
330
1F
100
AcDbEntity
  8
AM_4
100
AcDbLine
 10
1662.184901245234
 20
-543.7795526309145
 30
0.0
 11
1662.184901245235
 21
274.5475359037599
 31
0.0
  0
LINE
  5
2597
330
1F
100
AcDbEntity
  8
AM_4
100
AcDbLine
 10
1836.253965493597
 20
274.5475359037599
 30
0.0
 11
1836.253965493597
 21
-543.7795526309145
 31
0.0
  0
MTEXT
  5
25A8
330
1F
100
AcDbEntity
  8
AM_6
100
AcDbMText
 10
1550.461719970592
 20
766.9688612203644
 30
0.0
 40
35.0
 41
200.0
 71
     2
 72
     5
  1
Zarge
 73
     1
 44
1.0
  0
MTEXT
  5
25AA
330
1F
100
AcDbEntity
  8
AM_6
100
AcDbMText
 10
571.5145811562856
 20
-719.5279774221187
 30
0.0
 40
35.0
 41
1500.0
 71
     1
 72
     5
  1
DB           = Dagmaatbreedte (Bestelmaat)\PBWKB      = Buitenwerksekozijnmaat - breedte = DH + 100\PDB min.    = Minimale dagmaat breedte = DH - 45\PDRH         = Doorrijhoogte = DH - 220\PGBB min.  = Garagebinnenkantbreedte minimal = DH + 120
 73
     1
 44
1.0
  0
MTEXT
  5
2692
330
1F
100
AcDbEntity
  8
AM_6
100
AcDbMText
 10
-1427.689366408236
 20
817.8762841195403
 30
0.0
 40
50.0
 41
912.0499999999999
 71
     1
 72
     5
  1
Inbouw achter de opening
 73
     1
 44
1.0
  0
INSERT
  5
2765
330
1F
100
AcDbEntity
  8
AM_0
100
AcDbBlockReference
  2
*U3
 10
0.0
 20
0.0
 30
0.0
  0
INSERT
  5
2766
330
1F
100
AcDbEntity
  8
AM_0
100
AcDbBlockReference
  2
*U4
 10
0.0
 20
0.0
 30
0.0
  0
INSERT
  5
2767
330
1F
100
AcDbEntity
  8
AM_0
100
AcDbBlockReference
  2
*U6
 10
0.0
 20
0.0
 30
0.0
  0
VIEWPORT
  5
4C8
330
1B
100
AcDbEntity
 67
     1
  8
0
100
AcDbViewport
 10
219.433868761292
 20
154.5674533629858
 30
0.0
 40
595.2107787579251
 41
378.8415061648211
 68
     1
 69
     1
 12
219.433868761292
 22
154.5674533629858
 13
0.0
 23
0.0
 14
10.0
 24
10.0
 15
10.0
 25
10.0
 16
0.0
 26
0.0
 36
1.0
 17
0.0
 27
0.0
 37
0.0
 42
50.0
 43
0.0
 44
0.0
 45
378.8415061648211
 50
0.0
 51
0.0
 72
 20000
 90
    32800
  1

281
     0
 71
     1
 74
     0
110
0.0
120
0.0
130
0.0
111
1.0
121
0.0
131
0.0
112
0.0
122
1.0
132
0.0
 79
     0
146
0.0
1001
GENIUS_GENOREF_13
1005
F92
1001
GENIUS_GENSCREG_15
1000
PF
1040
1.0
1000
DF
1040
1.0
1000
MIN
1011
-86.3889708152358
1021
-17.28725182313451
1031
0.0
1000
MAX
1011
493.3948188328321
1021
299.7915541066306
1031
0.0
1000
FLAGS
1070
     2
  0
VIEWPORT
  5
F9A
330
1B
100
AcDbEntity
 67
     1
  8
AM_VIEWS
100
AcDbViewport
 10
202.3215735489823
 20
142.9695060019685
 30
0.0
 40
387.6050079331978
 41
261.6830387735515
 68
     2
 69
     2
 12
292.6401396954763
 22
-429.6539185231368
 13
0.0
 23
0.0
 14
5.0
 24
5.0
 15
10.0
 25
10.0
 16
0.0
 26
0.0
 36
1.0
 17
0.0
 27
0.0
 37
0.0
 42
50.0
 43
0.0
 44
0.0
 45
2616.830387735517
 50
0.0
 51
0.0
 72
 20000
 90
    32800
  1

281
     0
 71
     1
 74
     0
110
0.0
120
0.0
130
0.0
111
1.0
121
0.0
131
0.0
112
0.0
122
1.0
132
0.0
 79
     0
146
0.0
1001
GENIUS_GENOREF_13
1005
F9B
1001
GENIUS_GENSCREG_15
1000
PF
1040
10.0
1000
DF
1040
1.0
1000
MIN
1011
8.519069582383393
1021
12.12798661519264
1031
0.0
1000
MAX
1011
396.1240775155812
1021
273.8110253887443
1031
0.0
1000
FLAGS
1070
     2
1000
SDF
1005
F90
  0
POINT
  5
F9B
330
1B
100
AcDbEntity
 67
     1
  8
0
 60
     1
100
AcDbPoint
 10
0.0
 20
0.0
 30
0.0
1001
GENIUS_GENOBJ-N-SDF_13
1002
{
1000
OWNER
1000
GEN
1002
}
1001
GENIUS_GENOENT_13
1002
{
1000
MYREF
1005
F9B
1002
}
1002
{
1000
GRP
1005
0
1002
}
1001
GENIUS_GENOLIS_13
1002
{
1000
ENT
1005
F9A
1002
}
1001
GENIUS_GENODEF_13
1002
{
1000
HIER
1070
     1
1002
}
1002
{
1000
MANEDIT
1070
     0
1002
}
1002
{
1000
NOSEL
1070
     0
1002
}
1002
{
1000
BEHIND
1070
     0
1002
}
1002
{
1000
REACTOR
1002
}
  0
INSERT
  5
1026
330
1B
100
AcDbEntity
 67
     1
  8
AM_0
370
     0
100
AcDbBlockReference
  2
A3_NOVOFERM
 10
0.0
 20
0.0
 30
0.0
1001
GENIUS_GENOREF_13
1005
11A9
1001
GENIUS_GENODEF_13
1002
{
1000
HIER
1070
     0
1002
}
1002
{
1000
MANEDIT
1070
     0
1002
}
1002
{
1000
NOSEL
1070
     0
1002
}
1002
{
1000
BEHIND
1070
     0
1002
}
1002
{
1000
REACTOR
1002
}
1001
GENIUS_GENOBJ-N-SDF_13
1002
{
1000
OWNER
1000
GEN
1002
}
1001
GENIUS_GENSCREG_15
1040
1.0
1040
10.0
1011
0.0
1021
0.0
1031
0.0
1011
407.0
1021
282.5
1031
0.0
1070
     3
  0
INSERT
  5
1175
330
1B
100
AcDbEntity
 67
     1
  8
AM_0
370
     0
100
AcDbBlockReference
 66
     1
  2
NOVOFERM
 10
401.9999999999998
 20
0.0000000000000009
 30
0.0
1001
GENIUS_GENOREF_13
1005
11A9
  0
ATTRIB
  5
1177
330
1175
100
AcDbEntity
 67
     1
  8
AM_BOR
 62
     1
370
    25
100
AcDbText
 10
287.6279716976879
 20
0.9492237802654566
 30
0.0
 40
2.5
  1
201Z0003--03MW.DWG
 41
0.8
100
AcDbAttribute
  2
GEN-TITLE-DWG{10.8}
 70
     0
  0
ATTRIB
  5
1178
330
1175
100
AcDbEntity
 67
     1
  8
AM_BOR
 62
     2
370
    35
100
AcDbText
 10
331.0403902127327
 20
50.01451612903077
 30
0.0
 40
3.5
  1
1:10
 41
0.8
100
AcDbAttribute
  2
GEN-TITLE-SCA{5.42}
 70
     0
  0
ATTRIB
  5
1179
330
1175
100
AcDbEntity
 67
     1
  8
AM_BOR
 62
     1
370
    25
100
AcDbText
 10
283.2980531127182
 20
30.41000000000002
 30
0.0
 40
2.500000000000365
  1
17.03.06
100
AcDbAttribute
  2
GEN-TITLE-DAT{5.44}
 70
     0
  0
ATTRIB
  5
117A
330
1175
100
AcDbEntity
 67
     1
  8
AM_BOR
 62
     1
370
    25
100
AcDbText
 10
299.4674718569671
 20
30.41000000000002
 30
0.0
 40
2.500000000000365
  1
ARNTZ
100
AcDbAttribute
  2
GEN-TITLE-NAME{5}
 70
     0
  0
ATTRIB
  5
117B
330
1175
100
AcDbEntity
 67
     1
  8
AM_BOR
 62
     2
370
    35
100
AcDbText
 10
366.2865507730518
 20
50.01451612903224
 30
0.0
 40
3.500000000000343
  1
-
 41
0.8
100
AcDbAttribute
  2
GEN-TITLE-POSI{2.20}
 70
     0
  0
ATTRIB
  5
117C
330
1175
100
AcDbEntity
 67
     1
  8
AM_BOR
 62
     2
370
    35
100
AcDbText
 10
385.2670275675489
 20
50.01451612903075
 30
0.0
 40
3.500000000000343
  1
-
 41
0.8
100
AcDbAttribute
  2
GEN-TITLE-QTY{4.38}
 70
     0
  0
ATTRIB
  5
117D
330
1175
100
AcDbEntity
 67
     1
  8
AM_BOR
100
AcDbText
 10
320.7928356309283
 20
29.17459677419356
 30
0.0
 40
5.00000000000049
  1
Schwingtor M waagerechter Schnitt
 41
0.7421342969845786
100
AcDbAttribute
  2
GEN-TITLE-DES1{15.54}
 70
     0
  0
ATTRIB
  5
117E
330
1175
100
AcDbEntity
 67
     1
  8
AM_BOR
 62
     2
370
    35
100
AcDbText
 10
321.2928356309284
 20
21.17459677419355
 30
0.0
 40
3.500000000000171
  1

 41
0.8000000000000001
100
AcDbAttribute
  2
GEN-TITLE-DES2{21.21}
 70
     0
  0
ATTRIB
  5
117F
330
1175
100
AcDbEntity
 67
     1
  8
AM_BOR
 62
     2
370
    35
100
AcDbText
 10
342.2912927668621
 20
44.06703812316723
 30
0.0
 40
3.0
  1

 41
0.8000000000000001
100
AcDbAttribute
  2
GEN-TITLE-MAT1
 70
     0
  0
ATTRIB
  5
1180
330
1175
100
AcDbEntity
 67
     1
  8
AM_BOR
 62
     2
370
    35
100
AcDbText
 10
342.2912927668621
 20
39.78860215053771
 30
0.0
 40
3.0
  1
201; Übersichten
 41
0.8000000000000001
100
AcDbAttribute
  2
GEN-TITLE-MAT2
 70
     0
  0
ATTRIB
  5
1181
330
1175
100
AcDbEntity
 67
     1
  8
AM_BOR
 62
     1
370
    25
100
AcDbText
 10
299.9380147405002
 20
26.4915214039151
 30
0.0
 40
2.500000000000365
  1

100
AcDbAttribute
  2
GEN-TITLE-CHKM{5}
 70
     0
  0
ATTRIB
  5
1182
330
1175
100
AcDbEntity
 67
     1
  8
AM_BOR
 62
     1
370
    25
100
AcDbText
 10
283.4548996375978
 20
26.17804422461478
 30
0.0
 40
2.500000000000365
  1

100
AcDbAttribute
  2
GEN-TITLE-CHKD{5.41}
 70
     0
  0
ATTRIB
  5
1183
330
1175
100
AcDbEntity
 67
     1
  8
AM_BOR
 62
     2
370
    35
100
AcDbText
 10
396.2995928861538
 20
9.420007355724408
 30
0.0
 40
3.0
  1
1
 41
0.8
 72
     1
 11
396.8995928861538
 21
9.420007355724408
 31
0.0
100
AcDbAttribute
  2
GEN-TITLE-SHEET{2.62}
 70
     0
  0
ATTRIB
  5
1184
330
1175
100
AcDbEntity
 67
     1
  8
AM_BOR
 62
     1
370
    25
100
AcDbText
 10
396.6300440324571
 20
0.4161834165005314
 30
0.0
 40
3.000000000000293
  1

 72
     1
 11
396.6300440324571
 21
0.4161834165005314
 31
0.0
100
AcDbAttribute
  2
GEN-TITLE-PLOT{2.94}
 70
     0
  0
ATTRIB
  5
1185
330
1175
100
AcDbEntity
 67
     1
  8
AM_BOR
 62
     2
100
AcDbText
 10
265.8637918835397
 20
5.068134806612532
 30
0.0
 40
2.5
  1

100
AcDbAttribute
  2
REV_USER_1
 70
     0
  0
ATTRIB
  5
1186
330
1175
100
AcDbEntity
 67
     1
  8
AM_BOR
 62
     2
100
AcDbText
 10
219.9815284088042
 20
5.410416986614676
 30
0.0
 40
2.5
  1

100
AcDbAttribute
  2
REV_CODE_1
 70
     0
  0
ATTRIB
  5
1187
330
1175
100
AcDbEntity
 67
     1
  8
AM_BOR
 62
     2
100
AcDbText
 10
228.2094799080139
 20
4.839603437312347
 30
0.0
 40
2.5
  1

100
AcDbAttribute
  2
REV_TEXT_1
 70
     0
  0
ATTRIB
  5
1188
330
1175
100
AcDbEntity
 67
     1
  8
AM_BOR
 62
     2
100
AcDbText
 10
253.121893266586
 20
5.067929272254217
 30
0.0
 40
2.5
  1

100
AcDbAttribute
  2
REV_DATE_1
 70
     0
  0
ATTRIB
  5
1189
330
1175
100
AcDbEntity
 67
     1
  8
AM_BOR
 62
     2
100
AcDbText
 10
265.8637918835397
 20
9.298134806612537
 30
0.0
 40
2.5
  1

100
AcDbAttribute
  2
REV_USER_2
 70
     0
  0
ATTRIB
  5
118A
330
1175
100
AcDbEntity
 67
     1
  8
AM_BOR
 62
     2
100
AcDbText
 10
253.121893266586
 20
9.297929272254222
 30
0.0
 40
2.5
  1

100
AcDbAttribute
  2
REV_DATE_2
 70
     0
  0
ATTRIB
  5
118B
330
1175
100
AcDbEntity
 67
     1
  8
AM_BOR
 62
     2
100
AcDbText
 10
228.2094799080139
 20
9.069603437312348
 30
0.0
 40
2.5
  1

100
AcDbAttribute
  2
REV_TEXT_2
 70
     0
  0
ATTRIB
  5
118C
330
1175
100
AcDbEntity
 67
     1
  8
AM_BOR
 62
     2
100
AcDbText
 10
219.9815284088042
 20
9.640416986614679
 30
0.0
 40
2.5
  1

100
AcDbAttribute
  2
REV_CODE_2
 70
     0
  0
ATTRIB
  5
118D
330
1175
100
AcDbEntity
 67
     1
  8
AM_BOR
 62
     2
100
AcDbText
 10
265.8637918835397
 20
13.52813480661254
 30
0.0
 40
2.5
  1

100
AcDbAttribute
  2
REV_USER_3
 70
     0
  0
ATTRIB
  5
118E
330
1175
100
AcDbEntity
 67
     1
  8
AM_BOR
 62
     2
100
AcDbText
 10
253.121893266586
 20
13.52792927225422
 30
0.0
 40
2.5
  1

100
AcDbAttribute
  2
REV_DATE_3
 70
     0
  0
ATTRIB
  5
118F
330
1175
100
AcDbEntity
 67
     1
  8
AM_BOR
 62
     2
100
AcDbText
 10
228.2094799080139
 20
13.29960343731235
 30
0.0
 40
2.5
  1

100
AcDbAttribute
  2
REV_TEXT_3
 70
     0
  0
ATTRIB
  5
1190
330
1175
100
AcDbEntity
 67
     1
  8
AM_BOR
 62
     2
100
AcDbText
 10
219.9815284088042
 20
13.87041698661468
 30
0.0
 40
2.5
  1

100
AcDbAttribute
  2
REV_CODE_3
 70
     0
  0
ATTRIB
  5
1191
330
1175
100
AcDbEntity
 67
     1
  8
AM_BOR
 62
     2
100
AcDbText
 10
265.8637918835397
 20
17.75813480661253
 30
0.0
 40
2.5
  1

100
AcDbAttribute
  2
REV_USER_4
 70
     0
  0
ATTRIB
  5
1192
330
1175
100
AcDbEntity
 67
     1
  8
AM_BOR
 62
     2
100
AcDbText
 10
253.121893266586
 20
17.75792927225421
 30
0.0
 40
2.5
  1

100
AcDbAttribute
  2
REV_DATE_4
 70
     0
  0
ATTRIB
  5
1193
330
1175
100
AcDbEntity
 67
     1
  8
AM_BOR
 62
     2
100
AcDbText
 10
228.2094799080139
 20
17.52960343731233
 30
0.0
 40
2.5
  1

100
AcDbAttribute
  2
REV_TEXT_4
 70
     0
  0
ATTRIB
  5
1194
330
1175
100
AcDbEntity
 67
     1
  8
AM_BOR
 62
     2
100
AcDbText
 10
219.9815284088042
 20
18.10041698661467
 30
0.0
 40
2.5
  1

100
AcDbAttribute
  2
REV_CODE_4
 70
     0
  0
ATTRIB
  5
1195
330
1175
100
AcDbEntity
 67
     1
  8
AM_BOR
100
AcDbText
 10
226.8382942275326
 20
56.82076817905488
 30
0.0
 40
5.0
  1

 41
0.8
100
AcDbAttribute
  2
AVAILABLE
 70
     0
  0
ATTRIB
  5
1196
330
1175
100
AcDbEntity
 67
     1
  8
AM_BOR
 62
     2
100
AcDbText
 10
219.9815284088042
 20
22.33041698661469
 30
0.0
 40
2.5
  1

100
AcDbAttribute
  2
REV_CODE_5
 70
     0
  0
ATTRIB
  5
1197
330
1175
100
AcDbEntity
 67
     1
  8
AM_BOR
 62
     2
100
AcDbText
 10
228.2094799080139
 20
21.75960343731236
 30
0.0
 40
2.5
  1

100
AcDbAttribute
  2
REV_TEXT_5
 70
     0
  0
ATTRIB
  5
1198
330
1175
100
AcDbEntity
 67
     1
  8
AM_BOR
 62
     2
100
AcDbText
 10
253.121893266586
 20
21.98792927225422
 30
0.0
 40
2.5
  1

100
AcDbAttribute
  2
REV_DATE_5
 70
     0
  0
ATTRIB
  5
1199
330
1175
100
AcDbEntity
 67
     1
  8
AM_BOR
 62
     2
100
AcDbText
 10
265.8637918835397
 20
21.98813480661255
 30
0.0
 40
2.5
  1

100
AcDbAttribute
  2
REV_USER_5
 70
     0
  0
ATTRIB
  5
119A
330
1175
100
AcDbEntity
 67
     1
  8
AM_BOR
 62
     2
100
AcDbText
 10
219.9815284088042
 20
26.56041698661468
 30
0.0
 40
2.5
  1

100
AcDbAttribute
  2
REV_CODE_6
 70
     0
  0
ATTRIB
  5
119B
330
1175
100
AcDbEntity
 67
     1
  8
AM_BOR
 62
     2
100
AcDbText
 10
228.2094799080139
 20
25.98960343731235
 30
0.0
 40
2.5
  1

100
AcDbAttribute
  2
REV_TEXT_6
 70
     0
  0
ATTRIB
  5
119C
330
1175
100
AcDbEntity
 67
     1
  8
AM_BOR
 62
     2
100
AcDbText
 10
253.121893266586
 20
26.21792927225422
 30
0.0
 40
2.5
  1

100
AcDbAttribute
  2
REV_DATE_6
 70
     0
  0
ATTRIB
  5
119D
330
1175
100
AcDbEntity
 67
     1
  8
AM_BOR
 62
     2
100
AcDbText
 10
265.8637918835397
 20
26.21813480661254
 30
0.0
 40
2.5
  1

100
AcDbAttribute
  2
REV_USER_6
 70
     0
  0
ATTRIB
  5
119E
330
1175
100
AcDbEntity
 67
     1
  8
AM_BOR
 62
     2
100
AcDbText
 10
219.9815284088042
 20
30.79041698661467
 30
0.0
 40
2.5
  1

100
AcDbAttribute
  2
REV_CODE_7
 70
     0
  0
ATTRIB
  5
119F
330
1175
100
AcDbEntity
 67
     1
  8
AM_BOR
 62
     2
100
AcDbText
 10
228.2094799080139
 20
30.21960343731234
 30
0.0
 40
2.5
  1

100
AcDbAttribute
  2
REV_TEXT_7
 70
     0
  0
ATTRIB
  5
11A0
330
1175
100
AcDbEntity
 67
     1
  8
AM_BOR
 62
     2
100
AcDbText
 10
253.121893266586
 20
30.44792927225421
 30
0.0
 40
2.5
  1

100
AcDbAttribute
  2
REV_DATE_7
 70
     0
  0
ATTRIB
  5
11A1
330
1175
100
AcDbEntity
 67
     1
  8
AM_BOR
 62
     2
100
AcDbText
 10
265.8637918835397
 20
30.44813480661253
 30
0.0
 40
2.5
  1

100
AcDbAttribute
  2
REV_USER_7
 70
     0
  0
ATTRIB
  5
11A2
330
1175
100
AcDbEntity
 67
     1
  8
AM_BOR
 62
     2
100
AcDbText
 10
219.9815284088042
 20
35.02041698661469
 30
0.0
 40
2.5
  1

100
AcDbAttribute
  2
REV_CODE_8
 70
     0
  0
ATTRIB
  5
11A3
330
1175
100
AcDbEntity
 67
     1
  8
AM_BOR
 62
     2
100
AcDbText
 10
228.2094799080139
 20
34.44960343731236
 30
0.0
 40
2.5
  1

100
AcDbAttribute
  2
REV_TEXT_8
 70
     0
  0
ATTRIB
  5
11A4
330
1175
100
AcDbEntity
 67
     1
  8
AM_BOR
 62
     2
100
AcDbText
 10
253.121893266586
 20
34.67792927225421
 30
0.0
 40
2.5
  1

100
AcDbAttribute
  2
REV_DATE_8
 70
     0
  0
ATTRIB
  5
11A5
330
1175
100
AcDbEntity
 67
     1
  8
AM_BOR
 62
     2
100
AcDbText
 10
265.8637918835397
 20
34.67813480661254
 30
0.0
 40
2.5
  1

100
AcDbAttribute
  2
REV_USER_8
 70
     0
  0
ATTRIB
  5
11A6
330
1175
100
AcDbEntity
 67
     1
  8
AM_BOR
100
AcDbText
 10
320.3939979016347
 20
7.874999999999986
 30
0.0
 40
5.0
  1
201-Z-0003--
100
AcDbAttribute
  2
ZNR_NOVOFERM
 70
     0
  0
ATTRIB
  5
11A7
330
1175
100
AcDbEntity
 67
     1
  8
AM_BOR
 62
     2
370
    35
100
AcDbText
 10
335.3664385105423
 20
0.7694335667506503
 30
0.0
 40
3.0
  1

 41
0.8000000000000001
100
AcDbAttribute
  2
ersatzf
 70
     0
  0
ATTRIB
  5
11A8
330
1175
100
AcDbEntity
 67
     1
  8
AM_BOR
 62
     2
100
AcDbText
 10
394.3122637439848
 20
0.6119229676981495
 30
0.0
 40
2.5
  1

100
AcDbAttribute
  2
BLATTGR
 70
     0
  0
SEQEND
  5
1176
330
1175
100
AcDbEntity
 67
     1
  8
AM_0
370
     0
  0
POINT
  5
11A9
330
1B
100
AcDbEntity
 67
     1
  8
0
 60
     1
100
AcDbPoint
 10
0.0
 20
0.0
 30
0.0
1001
GENIUS_GENOBJ-N-TIT_13
1002
{
1000
OWNER
1000
GEN
1002
}
1001
GENIUS_GENOENT_13
1002
{
1000
MYREF
1005
11A9
1002
}
1002
{
1000
GRP
1005
0
1002
}
1001
GENIUS_GENOLIS_13
1002
{
1000
ENT
1005
1175
1005
1026
1002
}
1001
GENIUS_GENTITLE_13
1002
{
1000
HRA
1005
1026
1002
}
1002
{
1000
HTIT
1005
1175
1002
}
1002
{
1000
TITLE
1000
NOVOFERM
1002
}
1002
{
1000
BORDER
1000
A3_NOVOFERM
1002
}
1002
{
1000
SCALE
1000
1:10
1002
}
1002
{
1000
GENIUSID
1005
11A9
1002
}
1002
{
1000
ZV
1000
AMW
1002
}
1002
{
1000
ZVID
1000
AM-WorkFlow
1002
}
1002
{
1000
UNCHG
1002
{
1000
ZV
1000
ZVID
1000
GEN-TITLE-SCA
1002
}
1002
}
1001
GENIUS_GENODEF_13
1002
{
1000
HIER
1070
     1
1002
}
1002
{
1000
MANEDIT
1070
     0
1002
}
1002
{
1000
NOSEL
1070
     0
1002
}
1002
{
1000
BEHIND
1070
     0
1002
}
1002
{
1000
REACTOR
1002
}
  0
ENDSEC
  0
SECTION
  2
OBJECTS
  0
DICTIONARY
  5
C
330
0
100
AcDbDictionary
281
     1
  3
ACAD_GROUP
350
D
  3
ACAD_LAYOUT
350
1A
  3
ACAD_MLINESTYLE
350
17
  3
ACAD_PLOTSETTINGS
350
19
  3
ACAD_PLOTSTYLENAME
350
E
  3
AcadDim
350
25B0
  3
AcDbVariableDictionary
350
30
  3
AcmDictionary
350
D9
  3
AMG
350
A4
  3
AMGSNAPSETTINGS
350
F3
  3
DWGPROPS
350
275B
  3
GENIUS
350
18C6
  0
DICTIONARY
  5
18D
330
1F
100
AcDbDictionary
280
     1
281
     1
  3
ACAD_INDEX
360
2768
  0
DICTIONARY
  5
26B3
330
1B29
100
AcDbDictionary
280
     1
281
     1
  0
DICTIONARY
  5
2694
330
1D6E
100
AcDbDictionary
280
     1
281
     1
  0
DICTIONARY
  5
26CC
330
2072
100
AcDbDictionary
280
     1
281
     1
  0
DICTIONARY
  5
26EB
330
2078
100
AcDbDictionary
280
     1
281
     1
  0
DICTIONARY
  5
D
102
{ACAD_REACTORS
330
C
102
}
330
C
100
AcDbDictionary
281
     1
  0
DICTIONARY
  5
1A
102
{ACAD_REACTORS
330
C
102
}
330
C
100
AcDbDictionary
281
     1
  3
Layout1
350
1E
  3
Layout2
350
26
  3
Model
350
22
  0
DICTIONARY
  5
17
102
{ACAD_REACTORS
330
C
102
}
330
C
100
AcDbDictionary
281
     1
  3
Standard
350
18
  0
DICTIONARY
  5
19
102
{ACAD_REACTORS
330
C
102
}
330
C
100
AcDbDictionary
281
     1
  0
ACDBDICTIONARYWDFLT
  5
E
102
{ACAD_REACTORS
330
C
102
}
330
C
100
AcDbDictionary
281
     1
  3
Normal
350
F
100
AcDbDictionaryWithDefault
340
F
  0
XRECORD
  5
25B0
102
{ACAD_REACTORS
330
C
102
}
330
C
100
AcDbXrecord
280
     1
 90
   990106
  3

 60
     4
 61
     0
 62
     1
 63
     3
 64
     0
 65
     0
 66
     0
 67
     3
 68
     1
 69
     0
 70
     0
 71
     0
 72
     0
 40
0.0
170
     0
  0
DICTIONARY
  5
30
102
{ACAD_REACTORS
330
C
102
}
330
C
100
AcDbDictionary
281
     1
  3
DIMASSOC
350
27E5
  3
INDEXCTL
350
31
  0
DICTIONARY
  5
D9
102
{ACAD_REACTORS
330
C
102
}
330
C
100
AcDbDictionary
281
     1
  3
AcmBOM
350
273
  3
AcmStdDictionary
350
199
  0
DICTIONARY
  5
A4
102
{ACAD_REACTORS
330
C
102
}
330
C
100
AcDbDictionary
281
     1
  3
AcMgSettings
350
A5
  0
DICTIONARY
  5
F3
102
{ACAD_REACTORS
330
C
102
}
330
C
100
AcDbDictionary
281
     1
  3
DIMENSION
350
F8
  3
FEA
350
F7
  3
HATCH (1)
350
F4
  3
HATCH (2)
350
F5
  3
SYMBOLS
350
F6
  0
XRECORD
  5
275B
102
{ACAD_REACTORS
330
C
102
}
330
C
100
AcDbXrecord
280
     1
  1
DWGPROPS COOKIE
  2

  3

  4

  6

  7

  8

  9

300
AmdtFileType=84
301
=
302
=
303
=
304
=
305
=
306
=
307
=
308
=
309
=
 40
0.2248864467592592
 41
2451829.51106626
 42
2454068.50231493
  1

 90
        1
  0
DICTIONARY
  5
18C6
102
{ACAD_REACTORS
330
C
102
}
330
C
100
AcDbDictionary
281
     1
  3
ScratchBlock
350
18C7
  0
DICTIONARY
  5
2768
102
{ACAD_REACTORS
330
18D
102
}
330
18D
100
AcDbDictionary
281
     1
  3
*A1
350
2769
  0
LAYOUT
  5
1E
102
{ACAD_REACTORS
330
1A
102
}
330
1A
100
AcDbPlotSettings
  1

  2
\\NF00SCAD\Produktentwicklung 1
  4
A4
  6
AM_VIEW1
 40
6.011333465576169
 41
4.233341693878172
 42
6.011322021484375
 43
4.23333740234375
 44
209.9733276367186
 45
296.9259948730469
 46
0.0
 47
1.639999999999997
 48
0.0
 49
0.0
140
0.0
141
0.0
142
1.0
143
1.427225310464725
 70
   692
 72
     1
 73
     1
 74
     1
  7
Kopie von novoferm_05.ctb
 75
     0
147
0.7006602199861393
148
0.0055256611398136
149
0.00795291821521
100
AcDbLayout
  1
Layout1
 70
     1
 71
     1
 10
-8.388101458663955
 20
-8.587480189929152
 11
415.3921937590677
 21
291.0917675356981
 12
0.0
 22
0.0
 32
0.0
 14
-0.0000000000000568
 24
-0.0000000000000075
 34
0.0
 15
407.0
 25
282.5
 35
0.0
146
0.0
 13
0.0
 23
0.0
 33
0.0
 16
1.0
 26
0.0
 36
0.0
 17
0.0
 27
1.0
 37
0.0
 76
     0
330
1B
331
4C8
  0
LAYOUT
  5
26
102
{ACAD_REACTORS
330
1A
102
}
330
1A
100
AcDbPlotSettings
  1

  2
Generic PostScript Printer
  4
A4
  6
AM_VIEW1
 40
7.143749713897705
 41
8.837069511413574
 42
7.14373779296875
 43
8.9217529296875
 44
209.8886566162109
 45
297.0106506347656
 46
0.0
 47
0.0
 48
0.0
 49
0.0
140
0.0
141
0.0
142
1.0
143
1.0
 70
   688
 72
     1
 73
     1
 74
     5
  7
novoferm_05.ctb
 75
    16
147
1.0
148
0.0
149
0.0
100
AcDbLayout
  1
Layout2
 70
     1
 71
     2
 10
-8.9217529296875
 20
-7.143749713897705
 11
288.0888977050781
 21
202.7449069023131
 12
0.0
 22
0.0
 32
0.0
 14
1.000000000000000E+20
 24
1.000000000000000E+20
 34
1.000000000000000E+20
 15
-1.000000000000000E+20
 25
-1.000000000000000E+20
 35
-1.000000000000000E+20
146
0.0
 13
0.0
 23
0.0
 33
0.0
 16
1.0
 26
0.0
 36
0.0
 17
0.0
 27
1.0
 37
0.0
 76
     0
330
23
331
272D
  0
LAYOUT
  5
22
102
{ACAD_REACTORS
330
1A
102
}
330
1A
100
AcDbPlotSettings
  1

  2
CAD A3(Mussum).pc3
  4
ISO_A3_(297.00_x_420.00_MM)
  6
AM_VIEW1
 40
12.0
 41
5.0
 42
0.0
 43
5.0
 44
297.0
 45
420.0
 46
0.0
 47
0.0
 48
0.0
 49
0.0
140
0.0
141
0.0
142
1.0
143
1.0
 70
 11952
 72
     1
 73
     1
 74
     0
  7
novoferm_05.ctb
 75
    16
147
1.0
148
-93.59981355217639
149
26.19270913331613
100
AcDbLayout
  1
Model
 70
     1
 71
     0
 10
0.0
 20
0.0
 11
12.0
 21
9.0
 12
0.0
 22
0.0
 32
0.0
 14
0.0
 24
0.0
 34
0.0
 15
0.0
 25
0.0
 35
0.0
146
0.0
 13
0.0
 23
0.0
 33
0.0
 16
1.0
 26
0.0
 36
0.0
 17
0.0
 27
1.0
 37
0.0
 76
     0
330
1F
  0
MLINESTYLE
  5
18
102
{ACAD_REACTORS
330
17
102
}
330
17
100
AcDbMlineStyle
  2
STANDARD
 70
     0
  3

 62
   256
 51
90.0
 52
90.0
 71
     2
 49
0.5
 62
   256
  6
BYLAYER
 49
-0.5
 62
   256
  6
BYLAYER
  0
ACDBPLACEHOLDER
  5
F
102
{ACAD_REACTORS
330
E
102
}
330
E
  0
DICTIONARYVAR
  5
27E5
102
{ACAD_REACTORS
330
30
102
}
330
30
100
DictionaryVariables
280
     0
  1
1
  0
DICTIONARYVAR
  5
31
102
{ACAD_REACTORS
330
30
102
}
330
30
100
DictionaryVariables
280
     0
  1
1
  0
DICTIONARY
  5
273
102
{ACAD_REACTORS
330
D9
102
}
330
D9
100
AcDbDictionary
281
     1
  0
DICTIONARY
  5
199
102
{ACAD_REACTORS
330
D9
102
}
330
D9
100
AcDbDictionary
281
     1
  0
DICTIONARY
  5
A5
102
{ACAD_REACTORS
330
A4
102
}
330
A4
100
AcDbDictionary
281
     1
  0
ACAMGFILTERDAT
  5
F8
102
{ACAD_REACTORS
330
F3
102
}
330
F3
100
AcAmgFilterDat
 70
    15
  1
DIMENSION,AMDT_*_DIM
  2
*
  3
*
  4
*
  5
*
290
     1
  0
ACAMGFILTERDAT
  5
F7
102
{ACAD_REACTORS
330
F3
102
}
330
F3
100
AcAmgFilterDat
 70
    15
  1
*
  2
AM_FEA-AM_*
  3
*
  4
*
  5
*
290
     1
  0
ACAMGFILTERDAT
  5
F4
102
{ACAD_REACTORS
330
F3
102
}
330
F3
100
AcAmgFilterDat
 70
    15
  1
HATCH
  2
*
  3
*
  4
*
  5
*
290
     1
  0
ACAMGFILTERDAT
  5
F5
102
{ACAD_REACTORS
330
F3
102
}
330
F3
100
AcAmgFilterDat
 70
    15
  1
LINE
  2
8,8N,*-8,*-8N,AM_8,AM_8N,*-AM_8,*-AM_8N
  3
*
  4
*
  5
INSERT,STDPART2D
290
     1
  0
ACAMGFILTERDAT
  5
F6
102
{ACAD_REACTORS
330
F3
102
}
330
F3
100
AcAmgFilterDat
 70
    15
  1
ACMFCFRAME,ACMDATUMTARGET,ACMDATUMID,ACMWELDSYM,ACMSURFSYM,ACMFEATID,ACMPARTREF,ACMBALLOON,AMDTEDGESYM
  2
*
  3
*
  4
*
  5
*
290
     1
  0
XRECORD
  5
18C7
102
{ACAD_REACTORS
330
18C6
102
}
330
18C6
100
AcDbXrecord
280
     1
330
0
  0
LAYER_INDEX
  5
2769
102
{ACAD_REACTORS
330
2768
102
}
330
2768
100
AcDbIndex
 40
2454175.489483622
100
AcDbLayerIndex
  8
0
360
276A
 90
        3
  8
AM_0
360
276B
 90
       13
  8
Defpoints
360
276C
 90
        0
  8
Zarge-AM_0
360
276D
 90
      134
  8
Abdeckleiste-AM_0
360
276E
 90
       12
  8
Torblatt-AM_0
360
276F
 90
      150
  8
Torblatt-AM_7
360
2770
 90
        1
  8
AM_VIEWS
360
2771
 90
        3
  8
AM_BOR
360
2772
 90
        0
  8
AM_8
360
2773
 90
        3
  8
AM_5
360
2774
 90
       27
  8
AM_7
360
2775
 90
        3
  8
AM_4
360
2776
 90
       19
  8
AM_6
360
2777
 90
       10
  0
IDBUFFER
  5
276A
330
0
100
AcDbIdBuffer
330
F92
330
1937
330
224A
  0
IDBUFFER
  5
276B
330
0
100
AcDbIdBuffer
330
A5A
330
A5B
330
A5C
330
A5D
330
AE0
330
AE1
330
AE2
330
AE4
330
192F
330
21FA
330
2765
330
2766
330
2767
  0
IDBUFFER
  5
276C
330
0
100
AcDbIdBuffer
  0
IDBUFFER
  5
276D
330
0
100
AcDbIdBuffer
330
A93
330
A94
330
A95
330
A96
330
A97
330
A98
330
A99
330
A9A
330
A9B
330
A9C
330
A9D
330
A9E
330
A9F
330
AA0
330
AA1
330
AA2
330
AA3
330
AA4
330
AA5
330
AA6
330
AA7
330
AA8
330
AA9
330
AAA
330
AAB
330
AAC
330
AAD
330
AAE
330
AAF
330
AB0
330
AB1
330
AB2
330
B1E
330
B1F
330
B20
330
B21
330
B22
330
B23
330
B24
330
B25
330
B26
330
B27
330
B28
330
B29
330
B2A
330
B2B
330
B2C
330
B2D
330
B2E
330
B2F
330
B30
330
B31
330
B32
330
B33
330
B34
330
B35
330
B36
330
B37
330
B38
330
B39
330
B3A
330
B3B
330
B3C
330
B3D
330
E4E
330
E4F
330
E50
330
E51
330
E52
330
E53
330
E54
330
E55
330
E56
330
E57
330
E58
330
E59
330
E5A
330
E5B
330
E5C
330
E5D
330
E5E
330
E5F
330
E60
330
E61
330
E62
330
E63
330
E64
330
E65
330
E66
330
E67
330
E68
330
E69
330
E6A
330
E6B
330
E6C
330
E6D
330
E6E
330
E6F
330
E70
330
E71
330
E72
330
E73
330
21F7
330
21F8
330
21FD
330
21FE
330
2201
330
2202
330
220B
330
220D
330
2218
330
2219
330
221E
330
221F
330
2220
330
2221
330
2222
330
2223
330
2224
330
2225
330
2226
330
2227
330
2228
330
2235
330
223E
330
2241
330
2242
330
2243
330
2244
330
2245
330
2246
330
2247
330
2248
330
2249
  0
IDBUFFER
  5
276E
330
0
100
AcDbIdBuffer
330
A8F
330
A90
330
A91
330
A92
330
B1A
330
B1B
330
B1C
330
B1D
330
21FF
330
2200
330
2209
330
221D
  0
IDBUFFER
  5
276F
330
0
100
AcDbIdBuffer
330
A56
330
A57
330
A63
330
A64
330
A65
330
A66
330
A67
330
A68
330
A6A
330
A6B
330
A6C
330
A6D
330
A6E
330
A6F
330
A70
330
A71
330
A72
330
A73
330
A74
330
A75
330
A76
330
A77
330
A78
330
A79
330
A7A
330
A7B
330
A7C
330
A7D
330
A7E
330
A7F
330
A80
330
A81
330
A82
330
A83
330
A84
330
A85
330
A86
330
A87
330
A88
330
A89
330
A8A
330
A8C
330
A8D
330
A8E
330
AB7
330
ABB
330
ABC
330
ADC
330
ADD
330
AE9
330
AEA
330
AEB
330
AEC
330
AED
330
AEE
330
AEF
330
AF0
330
AF1
330
AF3
330
AF4
330
AF5
330
AF6
330
AF7
330
AF8
330
AF9
330
AFA
330
AFB
330
AFD
330
AFE
330
AFF
330
B00
330
B01
330
B02
330
B03
330
B04
330
B05
330
B06
330
B07
330
B08
330
B09
330
B0A
330
B0B
330
B0C
330
B0D
330
B0E
330
B0F
330
B10
330
B11
330
B12
330
B13
330
B14
330
B15
330
B17
330
B18
330
B19
330
B3E
330
B3F
330
B4C
330
B4D
330
B5D
330
21EF
330
21F0
330
21F1
330
21F2
330
21F3
330
21F4
330
21F5
330
21F6
330
21F9
330
2203
330
2204
330
2205
330
2206
330
2207
330
2208
330
220A
330
220C
330
220E
330
220F
330
2210
330
2211
330
2212
330
2213
330
2214
330
2215
330
2216
330
2217
330
221A
330
221B
330
221C
330
222B
330
222C
330
222D
330
222E
330
222F
330
2230
330
2231
330
2232
330
2233
330
2234
330
2236
330
2237
330
2238
330
2239
330
223A
330
223B
330
223C
330
223D
330
223F
330
2240
  0
IDBUFFER
  5
2770
330
0
100
AcDbIdBuffer
330
F82
  0
IDBUFFER
  5
2771
330
0
100
AcDbIdBuffer
330
F90
330
1930
330
206D
  0
IDBUFFER
  5
2772
330
0
100
AcDbIdBuffer
  0
IDBUFFER
  5
2773
330
0
100
AcDbIdBuffer
330
15A9
330
15B4
330
227B
  0
IDBUFFER
  5
2774
330
0
100
AcDbIdBuffer
330
124C
330
12FF
330
138F
330
1417
330
14C5
330
16B3
330
173F
330
17E3
330
195B
330
19FF
330
1A8A
330
1B29
330
1BB1
330
1C3C
330
1CC7
330
1D6E
330
1DCC
330
1E65
330
2071
330
2072
330
2073
330
2074
330
2076
330
2077
330
2078
330
239D
330
2441
  0
IDBUFFER
  5
2775
330
0
100
AcDbIdBuffer
330
12EE
330
12F6
330
21FB
  0
IDBUFFER
  5
2776
330
0
100
AcDbIdBuffer
330
185D
330
2584
330
2587
330
2588
330
2589
330
258A
330
258B
330
258C
330
258D
330
258E
330
258F
330
2590
330
2591
330
2592
330
2593
330
2594
330
2595
330
2596
330
2597
  0
IDBUFFER
  5
2777
330
0
100
AcDbIdBuffer
330
227D
330
227F
330
24D3
330
24DE
330
24E3
330
24E8
330
24ED
330
25A8
330
25AA
330
2692
  0
ENDSEC
  0
EOF
